Quick Browse
Movies
TV shows
Music
Games
Applications
Anime
Other
Facebook
Advertising

Friends
Torrent Download
Movie4u
1337x.to
Torrent Downloads




Verified torrent Apollo 18 2011 RC BDRiP LiNE XviD 5 1 AC3 - MiSTERE


    Seeders : 1      Leechers : 0
Hash :6D52130D0E9FB840A7F6B8382954C0ABBF1FBD46
Added :1 Year+ by memory100Verified torrent uploader in Movies
Size :1.6 GB
Stream :WATCH ONLINE @ Movie4u


Apollo 18 2011 RC BDRiP LiNE XviD 5 1 AC3 - MiSTERE
Free and Fast Download with Usenet 300GB+ free







Trackers List

Tracker NameLast CheckStatusSeedersLeechers




Torrent File Content (7 files)


Apollo 18 2011 RC BDRiP LiNE XviD READNFO 5.1 AC3 - MiSTERE
     Apollo 18 2011 RC BDRiP LiNE XviD READNFO 5.1 AC3 - MiSTERE.avi -
1.57 GB

     HDSceneRG.txt -
115 bytes

     Torrent downloaded from Demonoid.me.txt -
46 bytes

     Torrent downloaded from Suprnova.me.txt -
42 bytes

     att-networks.com.txt -
39 bytes

     sample.avi -
30.05 MB

     sceneunderground.org.txt -
77 bytes



Description



http://img27.imageshack.us/img27/5619/apolloc.jpg

[code]
Apollo 18 2011 BDRiP LiNE XviD 5.1 AC3 - MiSTERE

http://www.imdb.com/title/tt1772240/

SOURCE: Apollo 18 (2011) Blu-ray Disc

Video
ID : 0
Format : MPEG-4 Visual
Format profile : Advanced [email protected]
Format settings, BVOP : 2
Format settings, QPel : No
Format settings, GMC : No warppoints
Format settings, Matrix : Default (H.263)
Muxing mode : Packed bitstream
Codec ID : XVID
Codec ID/Hint : XviD
Duration : 1h 26mn
Bit rate : 2 134 Kbps
Width : 720 pixels
Height : 384 pixels
Display aspect ratio : 1.875
Frame rate : 23.976 fps
Color space : YUV
Chroma subsampling : 4:2:0
Bit depth : 8 bits
Scan type : Progressive
Compression mode : Lossy
Bits/(Pixel*Frame) : 0.322
Stream size : 1.29 GiB (82%)
Writing library : XviD 64

Audio
ID : 1
Format : AC-3
Format/Info : Audio Coding 3
Mode extension : CM (complete main)
Codec ID : 2000
Duration : 1h 26mn
Bit rate mode : Constant
Bit rate : 448 Kbps
Channel(s) : 6 channels
Channel positions : Front: L C R, Side: L R, LFE
Sampling rate : 48.0 KHz
Bit depth : 16 bits
Compression mode : Lossy
Stream size : 278 MiB (17%)
Alignment : Aligned on interleaves
Interleave, duration : 42 ms (1.00 video frame)


Resized cropped sharpened and tweaked RGB
Stripped the 2 ch LiNE
and remastered it into 6 channels
Take it or leave it
and wait for retail around christmas time
[/code]
Screens:
http://img707.imageshack.us/img707/7237/27503141.png

http://img853.imageshack.us/img853/1813/32734508.png

http://img13.imageshack.us/img13/517/89558995.png


Related torrents

Torrent NameAddedSizeSeedLeechHealth
1 Year+ - in Movies1.6 GB110
1 Year+ - in Movies1.6 GB6126
1 Year+ - in Movies1.6 GB2781
1 Year+ - in Movies3.17 GB132
1 Year+ - in Movies1.6 GB00

Comments (0 Comments)




Please login or create a FREE account to post comments

Latest Searches

| live a prayer | labicicleta | espionage the incurable one re upload from demonoid | Ash King Mtv | Eveline Dellai and Belle Claire Pass From Yoga to an Anal Threeway | s o d topc | top gear uk season 1 complete | Youth 2015 BRRip XviD AC3 EVO avi | Maggies Plan 720p BRRip | asian college |