Quick Browse
Movies
TV shows
Music
Games
Applications
Anime
Other
Facebook
Advertising

Friends
Torrent Download
Movie4u
1337x.to
Torrent Downloads




Armored 2009 DVDRip XviD-RG


    Seeders : 2471      Leechers : 474
Hash :3ADD42CD8DA829AC1744FA97D98FF0311F2472AC
Added :1 Year+ in Movies
Size :699.01 MB
Stream :WATCH ONLINE @ Movie4u


Armored 2009 DVDRip XviD-RG
Free and Fast Download with Usenet 300GB+ free







Trackers List

Tracker NameLast CheckStatusSeedersLeechers




Torrent File Content (1 file)


Armored.2009.DVDRip.XviD-RG
     Armored.2009.Dvdrip.Xvid.ISWE.Rg.avi -
699.01 MB



Description



http://i46.tinypic.com/30jgo0o.jpg


Screens:

http://i46.tinypic.com/s4vod5.jpg


[code]General
Complete name : Armored.2009.Dvdrip.Xvid.Rg.KOLA.avi
Format : AVI
Format/Info : Audio Video Interleave
File size : 699 MiB
Duration : 1h 27mn
Overall bit rate : 1 112 Kbps
Writing application : VirtualDubMod 1.5.4.1 (build 2178/release)
Writing library : VirtualDubMod build 2178/release

Video
ID : 0
Format : MPEG-4 Visual
Format profile : [email protected]
Format settings, BVOP : Yes
Format settings, QPel : No
Format settings, GMC : No warppoints
Format settings, Matrix : Custom
Codec ID : XVID
Codec ID/Hint : XviD
Duration : 1h 27mn
Bit rate : 982 Kbps
Width : 608 pixels
Height : 256 pixels
Display aspect ratio : 2.35:1
Frame rate : 29.970 fps
Resolution : 24 bits
Colorimetry : 4:2:0
Scan type : Progressive
Bits/(Pixel*Frame) : 0.210
Stream size : 617 MiB (88%)
Writing library : XviD 1.2.1 (UTC 2008-12-04)

Audio
ID : 1
Format : MPEG Audio
Format version : Version 1
Format profile : Layer 3
Format_Settings_Mode : Joint stereo / MS Stereo
Codec ID : 55
Codec ID/Hint : MP3
Duration : 1h 27mn
Bit rate mode : Variable
Bit rate : 117 Kbps
Nominal bit rate : 128 Kbps
Channel(s) : 2 channels
Sampling rate : 48.0 KHz
Resolution : 16 bits
Stream size : 73.5 MiB (11%)
Alignment : Aligned on interleaves
Interleave, duration : 24 ms (0.72 video frame)
Interleave, preload duration : 476 ms
Writing library : LAME3.98r
Encoding settings : -m j -V 4 -q 2 -lowpass 17 --abr 128
Language : English [/code]

Related torrents

Torrent NameAddedSizeSeedLeechHealth
5 months ago - in Movies1.43 GB00
1 Year+ - in Movies700.59 MB31
8 months ago - in Movies1.2 GB00
9 months ago - in Other320.2 MB17
1 Year+ - in Movies424.02 MB00

Comments (0 Comments)




Please login or create a FREE account to post comments

Latest Searches

| 100 things to do before high school s01e20 720p hdtv hevc x265 rmteam 720p hevc | Karma Alicia Keys | Apology Accepted Ruby Sparx and Shyla Jennings | Blue Rodeo LIVE | jennifer no me ames | GIANT 1956 ISO | The Bombshells 7 Elegant Angel 2016 WEB DL | jojo s bizarre adventure stardust crusaders AnimeRG | secret life of pets mini movies | ANDROID A PROGRAMMERS GUIDE pdf |