Quick Browse
Movies
TV shows
Music
Games
Applications
Anime
Other
Facebook
Advertising

Friends
Torrent Download
Movie4u
1337x.to
Torrent Downloads




Verified torrent Armoured [DVD5] [ENG] [AC3] [Hannspree]


    Seeders : 0      Leechers : 0
Hash :B7AA652FA2473008FDDA85A11AC5CCCD85698BA0
Added :1 Year+ by HannspreeVerified torrent uploader in Movies
Size :1.36 GB
Stream :WATCH ONLINE @ Movie4u


Armoured [DVD5] [ENG] [AC3] [Hannspree]
Free and Fast Download with Usenet 300GB+ free







Trackers List

Tracker NameLast CheckStatusSeedersLeechers




Torrent File Content (13 files)


Armoured
    Armoured [DVD]
          VIDEO_TS/VIDEO_TS.BUP -
12 KB

          VIDEO_TS/VIDEO_TS.IFO -
12 KB

          VIDEO_TS/VIDEO_TS.VOB -
58 KB

          VIDEO_TS/VTS_01_0.BUP -
62 KB

          VIDEO_TS/VTS_01_0.IFO -
62 KB

          VIDEO_TS/VTS_01_0.VOB -
58 KB

          VIDEO_TS/VTS_01_1.VOB -
1023.97 MB

          VIDEO_TS/VTS_01_2.VOB -
366.66 MB

    Armoured [images]
          Armoured [Cover].jpg -
50.67 KB

          Armoured [Disc].jpg -
30.71 KB

          Armoured [Screens].jpg -
135.47 KB

     Armoured.NFO -
3.31 KB

     Torrent downloaded from FT2.co.uk.txt -
44 bytes



Description



=====================================================================================
[ Another free, high quality, ready to burn DVD I will be adding new torrents on a daily basis - Remember to seed ]
=====================================================================================
MOVIE TITLE: Armoured
LANGUAGE: English
MOVIE SUBS: No
BURN TESTED: Yes
FORMAT: Pal
GENRE: Action | Crime | Thriller
RUNTIME: 88 Minutes
YEAR: 2009
IMDB LINK: http://www.imdb.com/title/tt0913354/
=====================================================================================
MOVIE DESC:

The war veteran, Ty Hackett, is hired to work as security guard by the Eagle Shield Security where his old friend Mike Cochroone works. Ty is having financial difficulties after the death of his father, and is raising his brother Jimmy alone. He teams up with Mike's brother-in-law, Baines, and their coworkers Quinn, Palmer and Dobbs. One night, Mike invites Ty to join in the robbery of two armored trucks transporting forty-two million dollars. The reluctant Ty accepts after Mike promises that nobody would be hurt in the heist.
=====================================================================================
MOVIE SPECS:

GENERAL:
Complete name : Armoured [DVD5]
Format : MPEG-PS
File size : 1.35 GB
Duration : 88 Minutes
Overall bit rate : 2 170 Kbps

VIDEO:
ID : 224 (0xE0)
Format : MPEG Video
Format version : Version 2
Format profile : [email protected]
Format settings, BVOP : Yes
Format settings, Matrix : Default
Duration : 88 Minutes
Bit rate mode : Variable
Bit rate : 1 935 Kbps
Nominal bit rate : 9 608 Kbps
Width : 720 pixels
Height : 576 pixels
Display aspect ratio : 16:9
Frame rate : 25.000 fps
Standard : PAL
Color space : YUV
Chroma subsampling : 4:2:0
Bit depth : 8 bits
Scan type : Progressive
Bits/(Pixel*Frame) : 0.187
Stream size : 913 MiB (89%)

AUDIO:
ID : 128 (0x80)
Format : AC-3
Format/Info : Audio Coding 3
Mode extension : CM (complete main)
Duration : 88 Minutes
Bit rate mode : Constant
Bit rate : 192 Kbps
Channel(s) : 2 channels
Channel positions : Front: L R
Sampling rate : 48.0 KHz
Stream size : 90.6 MiB (9%)
=====================================================================================
TRACKER:
http://www.ft2.co.uk:2710/announce
=====================================================================================
[FOOT NOTE]
If you are happy with this download, it would be nice to hear your views or comments that you might have. Enjoy
=====================================================================================
Screen Shot Of
=====================================================================================
http://leetpic.com/images/armouredsc.jpg

=====================================================================================
http://torrent-stats.info/85a1/787feb79.png

=====================================================================================

Related torrents

Torrent NameAddedSizeSeedLeechHealth
Verified torrent
1 Year+ - in Movies1.68 GB42
Verified torrent
1 Year+ - in Movies1.63 GB03
Verified torrent
1 Year+ - in Movies2.14 GB28
Verified torrent
1 Year+ - in Movies869.42 MB55
Verified torrent
1 Year+ - in Movies2 GB02

Comments (0 Comments)




Please login or create a FREE account to post comments

Latest Searches

| espn 30 for 30 small potatoes | mais uma | t i bs t i p | black pinky | ben hur 2010 720p | Deauxma cocktail | bbc 1916 the irish rebellion 720p hdtv x264 aac mkv | light kings | Tristam Rogue | ash ash |