Quick Browse
Movies
TV shows
Music
Games
Applications
Anime
Other

Donate and Support

Friends
Torrents.me
Torrent Download
Free Movies
1337x
RARBG
Torrent Downloads

Verified torrent Arthur 2011 TS XViD - IMAGiNE [NO RAR]


    Seeders : 1      Leechers : 101
Hash :20EFF38143BE54319987EB9660E78AB566CDC660
Added :1 Year+ by memory100Verified torrent uploader in Movies
Size :1.38 GB
Stream :Watch Full Movies Online @ Movie4u
Share :


Arthur 2011 TS XViD - IMAGiNE [NO RAR]
Anonymous and Direct Download 300GB+ free







Warning! Do not Download Torrents Without a VPN!
Your IP Address is .   And Location is
Your Internet Provider and Government can track your torrent Activity!  Hide your IP ADDRESS with a VPN!
We Strongly Recommend Using SpyOFF Torrent VPN to Anonymize your Torrenting. It's FREE For 15 Days!

Note :

Please Update (Trackers Info) Before Downloading Torrents to See Updated Seeders And Leechers for Batter Download Speed.

Trackers List

Tracker NameLast CheckStatusSeedersLeechers




Torrent File Content (9 files)


Arthur 2011 TS XViD - IMAGiNE
     Arthur 2011 TS XViD - IMAGiNE SAMPLE.avi -
14.24 MB

     Arthur 2011 TS XViD - IMAGiNE.NFO -
5.06 KB

     Arthur 2011 TS XViD - IMAGiNE.avi -
1.37 GB

     Budget seedboxs.txt -
44 bytes

     NW RG.nfo -
12.96 KB

     Torrent downloaded from Demonoid.me.txt -
46 bytes

     dreamthe.net.txt -
91 bytes

     northernwarriors.net.txt -
135 bytes

     sceneunderground.org.txt -
77 bytes



Description



http://img850.imageshack.us/img850/3076/arthury.jpg

[code]
Arthur 2011 TS XViD - IMAGiNE

Ripper ...........: IMAGiNE IMDB Rating.......: 5.3/10
Video Codec.......: XVID Release Date......: 18/05/11
Audio Codec.......: MP3 Theatre Date......: 08/04/11
Audio Bitrate.....: 128 Runtime.......: 1h 46mn
Subtitles.........: NIL Language..........: ENGLISH
Resolution......: 720 x 364 IMDb URL..........: http://www.imdb.com/title/tt1334512/

DETAILS:

Video
ID : 0
Format : MPEG-4 Visual
Format profile : Advanced [email protected]
Format settings, BVOP : 2
Format settings, QPel : No
Format settings, GMC : No warppoints
Format settings, Matrix : Default (MPEG)
Muxing mode : Packed bitstream
Codec ID : XVID
Codec ID/Hint : XviD
Duration : 59s 840ms
Bit rate : 1 857 Kbps
Width : 720 pixels
Height : 364 pixels
Display aspect ratio : 1.978
Frame rate : 25.000 fps
Color space : YUV
Chroma subsampling : 4:2:0
Bit depth : 8 bits
Scan type : Progressive
Compression mode : Lossy
Bits/(Pixel*Frame) : 0.283
Stream size : 13.2 MiB (93%)
Writing library : XviD 61

Audio
ID : 1
Format : MPEG Audio
Format version : Version 2
Format profile : Layer 3
Mode : Joint stereo
Mode extension : MS Stereo
Codec ID : 55
Codec ID/Hint : MP3
Duration : 59s 840ms
Bit rate mode : Constant
Bit rate : 128 Kbps
Channel(s) : 2 channels
Sampling rate : 24.0 KHz
Compression mode : Lossy
Stream size : 935 KiB (6%)
Alignment : Split accross interleaves
Interleave, duration : 40 ms (1.00 video frame)
Writing library : LAME3.98.4

Plot:
A drunken playboy stands to lose a wealthy inheritance when he falls for a woman his family doesn't like.

SOURCES:
VIDEO: .......... FLOPPYDiSK Thanx Mate
AUDIO: .......... Thanx Matey

NOTES:
IMAGiNE bringing you another release..........

Arthur TS......

Alright here we are with a nice TS of Arthur....

For the video, we made a script to crop, resize, and so on.....

Adjusted the colors a bit, sharpened,and tried to crop as much of the movement as possible without losing picture.....

The audio was nice LiNE we filtered, synced, and muxed to our encode

Enjoy Folks!
[/code]
Screens:
http://img90.imageshack.us/img90/6953/23154735.jpg

http://img163.imageshack.us/img163/2689/53011928.jpg

http://img200.imageshack.us/img200/7228/88675755.jpg

http://img535.imageshack.us/img535/460/46384720.jpg

http://img821.imageshack.us/img821/1082/90822745.jpg

http://img16.imageshack.us/img16/8292/72514544.jpg

Related torrents

Torrent NameAddedSizeSeedLeechHealth
1 Year+ - in Movies1.38 GB00
1 Year+ - in Movies1.38 GB068
1 Year+ - in Movies1.38 GB00
1 Year+ - in Movies1.38 GB00
Verified torrent
1 Year+ - in Movies2.08 GB00

Comments (1 comment)




zeyneb
» Downloaded this torrent Downloaded this torrent » Voted Good Voted Good for this torrent for this torrent

Added 1 Year+
thx heaps
Please login or create a FREE account to post comments

Latest Searches

| THE STEVENSON RANCH DAVIDIANS AMERIKANA | heydouga 4146 108 | songs of the 9 r b | sec 2016 | ebook en j k rowling | the p | hardware 1990 rarbg 720p | 10bit x265 tv | Winx Club Compilation | us top 4 17 |