Quick Browse
Movies
TV shows
Music
Games
Applications
Anime
Other
Facebook
Advertising

Friends
Torrent Download
Movie4u
1337x.to
Torrent Downloads




Verified torrent Arthur Christmas 2011 720p TS XviD 5.1 AC3-26K


    Seeders : 1      Leechers : 0
Hash :55952272EEB51C33BCF9EEE04B7144ABFF9761DC
Added :1 Year+ by memory100Verified torrent uploader in Movies
Size :1.76 GB
Stream :WATCH ONLINE @ Movie4u


Arthur Christmas 2011 720p TS XviD 5.1 AC3-26K
Free and Fast Download with Usenet 300GB+ free







Trackers List

Tracker NameLast CheckStatusSeedersLeechers




Torrent File Content (7 files)


Arthur Christmas 2011 720p TS XviD 5.1 AC3-26K
     sample.avi -
43.41 MB

     sceneunderground.org.txt -
77 bytes

     att-networks.com.txt -
39 bytes

     Torrent downloaded from Demonoid.me.txt -
46 bytes

     Arthur Christmas 2011 720p TS XviD 5.1 AC3-26K.nfo -
3.78 KB

     HDSceneRG.txt -
115 bytes

     Arthur Christmas 2011 720p TS XviD 5.1 AC3-26K.avi -
1.72 GB



Description



http://img408.imageshack.us/img408/1071/arthurhz.jpg

[code]
Arthur Christmas 2011 720p TS XviD 5.1 AC3-26K

Imdb:
http://www.imdb.com/title/tt1430607/

Plot:
On Christmas night at the North Pole, Santa's youngest son looks to use his father's high-tech

operation for an urgent mission.

Sources:
ILLUMANTI video + audio!

Notes:
thnxs ILLUMANTI for the ts we orignally had cam for this movie whichg was nearly done syncing it until

we saw the ts was out! wich was much better in picture and sound so here is our 720p ts encode!
added a few filters to make the video look nice and did notice it did have some dark scenes tried my

best to brightenn these up :P alos added a few other filters to make it look nice :)
take it or leave it guyz!

encoded by 26K!

Greetz:
Xtreme Encode|FYA|ILLUMANTI|CM8|RX|VISION|HDSCENE|NIGHTMAREZ|xTriLL
To all the people who have helped me :P you know who you are

Anything to offer email us @: [email protected]

Video
ID : 0
Format : MPEG-4 Visual
Format profile : Advanced [email protected]
Format settings, BVOP : 2
Format settings, QPel : No
Format settings, GMC : No warppoints
Format settings, Matrix : Default (H.263)
Codec ID : XVID
Codec ID/Hint : XviD
Duration : 1h 31mn
Bit rate : 2 300 Kbps
Width : 1 280 pixels
Height : 544 pixels
Display aspect ratio : 2.35:1
Frame rate : 24.000 fps
Color space : YUV
Chroma subsampling : 4:2:0
Bit depth : 8 bits
Scan type : Progressive
Compression mode : Lossy
Bits/(Pixel*Frame) : 0.138
Stream size : 1.47 GiB (85%)
Writing library : XviD 63

Audio
ID : 1
Format : AC-3
Format/Info : Audio Coding 3
Mode extension : CM (complete main)
Codec ID : 2000
Duration : 1h 31mn
Bit rate mode : Constant
Bit rate : 384 Kbps
Channel(s) : 6 channels
Channel positions : Front: L C R, Side: L R, LFE
Sampling rate : 48.0 KHz
Bit depth : 16 bits
Compression mode : Lossy
Stream size : 251 MiB (14%)
Alignment : Aligned on interleaves
Interleave, duration : 42 ms (1.00 video frame)

[/code]
Screens:
http://img825.imageshack.us/img825/421/vlcsnap2011121921h59m00.png

http://img815.imageshack.us/img815/9426/vlcsnap2011121921h59m04.png

http://img546.imageshack.us/img546/5690/vlcsnap2011121921h59m11.png

http://img714.imageshack.us/img714/6892/vlcsnap2011121921h59m14.png

http://img202.imageshack.us/img202/3910/vlcsnap2011121921h59m37.png

http://img812.imageshack.us/img812/5418/vlcsnap2011121921h59m44.png

http://img31.imageshack.us/img31/6/vlcsnap2011121921h59m51.png

http://img714.imageshack.us/img714/2088/vlcsnap2011121922h00m16.png


http://img851.imageshack.us/img851/5503/26ks.jpg
#
Thank you smallz for banner!

Related torrents

Torrent NameAddedSizeSeedLeechHealth
1 Year+ - in Movies1.76 GB2159
1 Year+ - in Movies2.57 GB1175
1 Year+ - in Movies2.57 GB00
Verified torrent
1 Year+ - in Movies2.57 GB10
1 Year+ - in Movies2.44 GB13

Comments (0 Comments)




Please login or create a FREE account to post comments

Latest Searches

| david bowie Im afraid | Fundamentals of nursing potter perry | david bowie Im afraid of | WiBit Net Video Tutorial C Beginner CrashCourse part12 | campaig | 4 cocks 1 ass | go hard dirty | lumion 7 64 bit | Sweet18 Penelope | This shit right here lily sincere |