Quick Browse
Movies
TV shows
Music
Games
Applications
Anime
Other
Facebook
Advertising

Friends
Torrent Download
Movie4u
1337x.to
Torrent Downloads




Verified torrent Arthur Christmas 2011 720p TS XviD 5 1 AC3 - ILLUMINATI


    Seeders : 1      Leechers : 0
Hash :2B12A07644FC1ED81E964DB60F9EFE01C8C1CD1D
Added :1 Year+ by memory100Verified torrent uploader in Movies
Size :2.57 GB
Stream :WATCH ONLINE @ Movie4u


Arthur Christmas 2011 720p TS XviD 5 1 AC3 - ILLUMINATI
Free and Fast Download with Usenet 300GB+ free







Trackers List

Tracker NameLast CheckStatusSeedersLeechers




Torrent File Content (6 files)


Arthur Christmas 2011 720p TS XviD 5 1 AC3 - ILLUMINATI
     Arthur Christmas 2011 720p TS XviD 5 1 AC3 - ILLUMINATI.avi -
2.52 GB

     att-networks.com.txt -
39 bytes

     HDSceneRG.txt -
115 bytes

     sample.avi -
46.15 MB

     sceneunderground.org.txt -
77 bytes

     Torrent downloaded from Demonoid.me.txt -
46 bytes



Description



http://img706.imageshack.us/img706/5374/arthurf.jpg

[code]

Imdb:
http://www.imdb.com/title/tt1430607/

Plot:
On Christmas night at the North Pole, Santa's youngest son looks to use his father's high-tech operation for an urgent mission.

Format : MPEG-4 Visual
Format profile : Advanced [email protected]
Format settings, BVOP : 2
Format settings, QPel : No
Format settings, GMC : No warppoints
Format settings, Matrix : Default (H.263)
Muxing mode : Packed bitstream
Codec ID : XVID
Codec ID/Hint : XviD
Duration : 1h 31mn
Bit rate : 3 559 Kbps
Width : 1 280 pixels
Height : 544 pixels
Display aspect ratio : 2.35:1
Frame rate : 24.000 fps
Color space : YUV
Chroma subsampling : 4:2:0
Bit depth : 8 bits
Scan type : Progressive
Compression mode : Lossy
Bits/(Pixel*Frame) : 0.213
Stream size : 2.27 GiB (90%)
Writing library : XviD 64

Audio
ID : 1
Format : AC-3
Format/Info : Audio Coding 3
Mode extension : CM (complete main)
Codec ID : 2000
Duration : 1h 31mn
Bit rate mode : Constant
Bit rate : 384 Kbps
Channel(s) : 6 channels
Channel positions : Front: L C R, Side: L R, LFE
Sampling rate : 48.0 KHz
Bit depth : 16 bits
Compression mode : Lossy
Stream size : 251 MiB (10%)
Alignment : Aligned on interleaves
Interleave, duration : 42 ms (1.00 video frame)

[/code]
Screens:
http://img408.imageshack.us/img408/34/84627697.png

http://img403.imageshack.us/img403/6241/75472344.png

http://img861.imageshack.us/img861/6848/89182634.png

http://img818.imageshack.us/img818/8982/92707938.png

Related torrents

Torrent NameAddedSizeSeedLeechHealth
1 Year+ - in Movies2.57 GB1175
1 Year+ - in Movies2.57 GB00
1 Year+ - in Movies1.76 GB2159
Verified torrent
1 Year+ - in Movies1.76 GB10
1 Year+ - in Movies2.44 GB13

Comments (0 Comments)




Please login or create a FREE account to post comments

Latest Searches

| SPINSTER MAKING A LIFE OF ONE S OWN | xxx 031 | Run the Tide 2016 1080p WEB | brother love 2015 | dont tell me i love me | teens fuck 10 | x company s02e07 720p | Jean Michel Jarre OXYGENE 0113 Suite Complete | cake wars | female ejaculation |