Quick Browse
Movies
TV shows
Music
Games
Applications
Anime
Other
Facebook
Advertising

Friends
Torrent Download
Movie4u
1337x.to
Torrent Downloads




Verified torrent Arthur Christmas 2011 DVDSCR XviD AC3-26K


    Seeders : 0      Leechers : 0
Hash :ABC4C0CB68BD3C727F0A8762701F386A68AB8012
Added :1 Year+ by memory100Verified torrent uploader in Movies
Size :1.61 GB
Stream :WATCH ONLINE @ Movie4u


Arthur Christmas 2011 DVDSCR XviD AC3-26K
Free and Fast Download with Usenet 300GB+ free







Trackers List

Tracker NameLast CheckStatusSeedersLeechers




Torrent File Content (7 files)


Arthur Christmas 2011 DVDSCR XviD AC3-26K
     Arthur Christmas 2011 DVDSCR XviD AC3-26K.avi -
1.56 GB

     Arthur Christmas 2011 DVDSCR XviD AC3-26K.nfo -
3.38 KB

     HDSceneRG.txt -
115 bytes

     Torrent downloaded from Demonoid.me.txt -
46 bytes

     att-networks.com.txt -
39 bytes

     sample.avi -
44.8 MB

     sceneunderground.org.txt -
77 bytes



Description



http://img189.imageshack.us/img189/6950/arthurd.jpg

[code]
Arthur Christmas 2011 DVDSCR XviD AC3-26K

Imdb:
http://www.imdb.com/title/tt1430607/

Plot:
On Christmas night at the North Pole, Santa's youngest son looks to use his father's high-tech operation

for an urgent mission.

Sources:
Arthur.Christmas.2011.Read.Nfo.NTSC.DVDSCR.DVDR-JKR-THNXS!!!!!!!!!!!!!

Notes:
WOW A DVDSCR!!! WELL ADDED A FEW FILTERS TO THE VIDEO TO MAKE IT LOOK NICE!!
:p ENJOY!

Greetz:
Xtreme

Encode|FYA|ILLUMANTI|CM8|RX|VISION|HDSCENE|NIGHTMAREZ|xTriLL|DTRG|CRYS|REMIXHD|BIDA|RX|REFILL|INSPiRAL|SI

C
To all the people who have helped me :P you know who you are

Anything to offer email us @: [email protected]

Video
ID : 0
Format : MPEG-4 Visual
Format profile : Advanced [email protected]
Format settings, BVOP : 1
Format settings, QPel : No
Format settings, GMC : No warppoints
Format settings, Matrix : Custom
Codec ID : XVID
Codec ID/Hint : XviD
Duration : 1h 37mn
Bit rate : 1 840 Kbps
Width : 720 pixels
Height : 400 pixels
Display aspect ratio : 16:9
Frame rate : 23.976 fps
Color space : YUV
Chroma subsampling : 4:2:0
Bit depth : 8 bits
Scan type : Progressive
Compression mode : Lossy
Bits/(Pixel*Frame) : 0.266
Stream size : 1.25 GiB (80%)
Writing library : XviD 64

Audio
ID : 1
Format : AC-3
Format/Info : Audio Coding 3
Mode extension : CM (complete main)
Codec ID : 2000
Duration : 1h 37mn
Bit rate mode : Constant
Bit rate : 448 Kbps
Channel(s) : 6 channels
Channel positions : Front: L C R, Side: L R, LFE
Sampling rate : 48.0 KHz
Bit depth : 16 bits
Compression mode : Lossy
Stream size : 312 MiB (20%)
Alignment : Split accross interleaves
Interleave, duration : 96 ms (2.30 video frames)
Interleave, preload duration : 96 ms
Language : English

[/code]
Screens:
http://img819.imageshack.us/img819/1673/vlcsnap2012011619h01m30.png

http://img716.imageshack.us/img716/6930/vlcsnap2012011619h01m35.png

http://img202.imageshack.us/img202/6351/vlcsnap2012011619h01m44.png

http://img715.imageshack.us/img715/9030/vlcsnap2012011619h01m49.png

http://img205.imageshack.us/img205/7569/vlcsnap2012011619h02m03.png


http://img851.imageshack.us/img851/5503/26ks.jpg

Thank you smallz for banner!

Related torrents

Torrent NameAddedSizeSeedLeechHealth
1 Good
1 Year+ - in Movies1.47 GB396
1 Year+ - in Movies1.47 GB01
1 Year+ - in Movies1.47 GB217
1 Year+ - in Movies1.37 GB03
1 Year+ - in Movies1.37 GB12

Comments (0 Comments)




Please login or create a FREE account to post comments

Latest Searches

| Technobase FM We Are One Vol 5 | despertar da f | i married 1942 | 90 s rap hits | femjoy images | gentry Montgomery Merry Christmas the family | magic v 1 65 | Supernatural Season 9 Mp4 1080p | clinical case studies in | daz3d Green and Gold Onyx |