Quick Browse
Movies
TV shows
Music
Games
Applications
Anime
Other

Donate and Support

Friends
Torrents.me
Torrent Download
Free Movies
1337x
RARBG
Torrent Downloads

Verified torrent As Good As Dead 2010 DVDRip Xvid AC3-*THC*


    Seeders : 50      Leechers : 37
Hash :4981DACB4C4314B8205D5DC9C368E0E3E682FCC2
Added :1 Year+ by striker123Verified torrent uploader in Movies
Size :1.2 GB
Stream :Watch Full Movies Online @ Movie4u
Share :


As Good As Dead 2010 DVDRip Xvid AC3-*THC*
Anonymous and Direct Download 300GB+ free







Warning! Do not Download Torrents Without a VPN!
Your IP Address is .   And Location is
Your Internet Provider and Government can track your torrent Activity!  Hide your IP ADDRESS with a VPN!
We Strongly Recommend Using SpyOFF Torrent VPN to Anonymize your Torrenting. It's FREE For 15 Days!

Note :

Please Update (Trackers Info) Before Downloading Torrents to See Updated Seeders And Leechers for Batter Download Speed.

Trackers List

Tracker NameLast CheckStatusSeedersLeechers




Torrent File Content (4 files)


As Good As Dead DVDRip Xvid AC3-THC
     As Good As Dead DVDRip Xvid AC3-THC.avi -
1.17 GB

    Sample
          As Good As Dead DVDRip Xvid AC3 Sample-THC.avi -
25.44 MB

    Subtitle
          VTS_01_0 english spanish.idx -
87.65 KB

          VTS_01_0 english spanish.sub -
6.36 MB



Description



http://i126.photobucket.com/albums/p102/tebugg/81uxFXg92wL_AA1467_.jpg


http://i126.photobucket.com/albums/p102/tebugg/info.png



General
Complete name : E:\As Good As Dead DVDRip Xvid AC3-THC\As Good As Dead DVDRip Xvid AC3-THC.avi
Format : AVI
Format/Info : Audio Video Interleave
Format profile : OpenDML
File size : 1.17 GiB
Duration : 1h 31mn
Overall bit rate : 1 825 Kbps
Writing application : AVI-Mux GUI 1.17.8.3, Feb 16 201019:42:50

Video
ID : 0
Format : MPEG-4 Visual
Format profile : Advanced [email protected]
Format settings, BVOP : Yes
Format settings, QPel : No
Format settings, GMC : No warppoints
Format settings, Matrix : Default (MPEG)
Codec ID : XVID
Codec ID/Hint : XviD
Duration : 1h 31mn
Bit rate : 1 500 Kbps
Width : 720 pixels
Height : 384 pixels
Display aspect ratio : 1.875
Frame rate : 23.976 fps
Color space : YUV
Chroma subsampling : 4:2:0
Bit depth : 8 bits
Scan type : Progressive
Bits/(Pixel*Frame) : 0.226
Stream size : 985 MiB (82%)
Writing library : XviD 1.2.1 (UTC 2008-12-04)

Audio
ID : 1
Format : AC-3
Format/Info : Audio Coding 3
Mode extension : CM (complete main)
Codec ID : 2000
Duration : 1h 31mn
Bit rate mode : Constant
Bit rate : 320 Kbps
Channel(s) : 6 channels
Channel positions : Front: L C R, Side: L R, LFE
Sampling rate : 48.0 KHz
Bit depth : 16 bits
Stream size : 210 MiB (18%)
Alignment : Aligned on interleaves
Interleave, duration : 64 ms (1.53 video frames)
Interleave, preload duration : 192 ms
Title : VTS_01_1 T80 3_2ch 320Kbps DELAY 0ms

Actors: Andie MacDowell, Cary Elwes, Frank Whaley
Directors: Jonathan Mossek
Language: English
Subtitle: English, Spanish
Rated: R (Restricted)
Studio: First Look Studios
DVD Release Date: October 12, 2010
Run Time: 91 minutes
Sample Included: Yes


http://i126.photobucket.com/albums/p102/tebugg/screens-1.png


http://i126.photobucket.com/albums/p102/tebugg/vlcsnap-2010-10-25-14h39m48s239.png

http://i126.photobucket.com/albums/p102/tebugg/vlcsnap-2010-10-25-14h40m09s192.png

http://i126.photobucket.com/albums/p102/tebugg/vlcsnap-2010-10-25-14h40m34s186.png

http://i126.photobucket.com/albums/p102/tebugg/vlcsnap-2010-10-25-14h40m45s45.png



Related torrents

Torrent NameAddedSizeSeedLeechHealth
1 Year+ - in Movies1.36 GB4010
1 Year+ - in Movies1.16 GB00
1 Year+ - in Movies1.54 GB872
1 Year+ - in Movies1.75 GB00
1 Year+ - in Other1.11 GB00

Comments (0 Comments)




Please login or create a FREE account to post comments

Latest Searches

| Wolf S06E14 720p x265 | Moka Mora Nerdy Student Moka Anally Mind Fucked | round and brown anya ivy all anya mp4 | x2 pc | A Proposito Di Henry 1991 | better late than dead plaza | Matador 1986 | Fish Art | hldsupdatetool | of Fire |