Quick Browse
Movies
TV shows
Music
Games
Applications
Anime
Other
Facebook
Friends
Torrent Download
Movie4u
1337x.to
Torrent Downloads

Astro_Boy_R5_LiNE_XVID-IMAGiNE-BlackStarBTRG-BY-DJMark


    Seeders : 0      Leechers : 0

Trackers List

Tracker NameLast CheckStatusSeedersLeechers




Torrent File Content (104 files)


Astro Boy R5 LiNE XVID-IMAGiNE-BlackStarBTRG-BY-DJMark
     AB.r00 -
14.31 MB

     AB.r01 -
14.31 MB

     AB.r02 -
14.31 MB

     AB.r03 -
14.31 MB

     AB.r04 -
14.31 MB

     AB.r05 -
14.31 MB

     AB.r06 -
14.31 MB

     AB.r07 -
14.31 MB

     AB.r08 -
14.31 MB

     AB.r09 -
14.31 MB

     AB.r10 -
14.31 MB

     AB.r11 -
14.31 MB

     AB.r12 -
14.31 MB

     AB.r13 -
14.31 MB

     AB.r14 -
14.31 MB

     AB.r15 -
14.31 MB

     AB.r16 -
14.31 MB

     AB.r17 -
14.31 MB

     AB.r18 -
14.31 MB

     AB.r19 -
14.31 MB

     AB.r20 -
14.31 MB

     AB.r21 -
14.31 MB

     AB.r22 -
14.31 MB

     AB.r23 -
14.31 MB

     AB.r24 -
14.31 MB

     AB.r25 -
14.31 MB

     AB.r26 -
14.31 MB

     AB.r27 -
14.31 MB

     AB.r28 -
14.31 MB

     AB.r29 -
14.31 MB

     AB.r30 -
14.31 MB

     AB.r31 -
14.31 MB

     AB.r32 -
14.31 MB

     AB.r33 -
14.31 MB

     AB.r34 -
14.31 MB

     AB.r35 -
14.31 MB

     AB.r36 -
14.31 MB

     AB.r37 -
14.31 MB

     AB.r38 -
14.31 MB

     AB.r39 -
14.31 MB

     AB.r40 -
14.31 MB

     AB.r41 -
14.31 MB

     AB.r42 -
14.31 MB

     AB.r43 -
14.31 MB

     AB.r44 -
14.31 MB

     AB.r45 -
14.31 MB

     AB.r46 -
14.31 MB

     AB.r47 -
14.31 MB

     AB.r48 -
14.31 MB

     AB.r49 -
14.31 MB

+ Show all torrent content...

Description



Ripper ...........: IMAGiNE                                        IMDB  Rating.......:6.8/10                           
 
Video Codec.......: XVID Release Date......:30/11/09
Audio Codec.......:MP3 Theatre Date......:23/10/09
Audio Bitrate.....:128 Runtime.......:1h 29mn
Subtitles.........:NIL Language..........:ENGLISH
Resolution...... 720 x 304 IMDb URL..........:[code]http://www.imdb.com/title/tt0976222/[/code]


[color="yellow"]DETAILS:[/color]
Tracker
[code]http://www.h33t.com:3310/announce[/code]
Video
ID : 0
Format : MPEG-4 Visual
Format profile : Advanced [email protected]
Format settings, BVOP : Yes
Format settings, QPel : No
Format settings, GMC : No warppoints
Format settings, Matrix : Default (MPEG)
Muxing mode : Packed bitstream
Codec ID : XVID
Codec ID/Hint : XviD
Duration : 1h 29mn
Bit rate : 2 069 Kbps
Width : 720 pixels
Height : 304 pixels
Display aspect ratio : 2.35
Frame rate : 25.000 fps
Resolution : 24 bits
Colorimetry : 4:2:0
Scan type : Progressive
Bits/(Pixel*Frame) : 0.378
Stream size : 1.30 GiB (94%)
Writing library : XviD 1.2.1 (UTC 2008-12-04)

Audio
ID : 1
Format : MPEG Audio
Format version : Version 1
Format profile : Layer 3
Codec ID : 55
Codec ID/Hint : MP3
Duration : 1h 29mn
Bit rate mode : Constant
Bit rate : 128 Kbps
Channel(s) : 2 channels
Sampling rate : 48.0 KHz
Resolution : 16 bits
Stream size : 82.3 MiB (6%)
Alignment : Split accross interleaves
Interleave, duration : 40 ms (1.00 video frame)
Interleave, preload duration : 500 ms



[color="yellow"]NOTES:[/color]

IMAGiNE bringing you another release.....
This time round it's the R5 of astro boy with complete english line audio.....no russian audio or subs needed.
The source itself we thought was poor for an R5,very dark,colours were messed up and it also seems to change
colouring throughout.
Anyway we did our best at tweaking it to our liking,take or leave .

[color="yellow"]SCREENS:[/color]

http://lookpic.com/i/389/YclSe2ov.png

http://lookpic.com/i/684/KD93xqXb.png

http://lookpic.com/i/91/Lca91dkI.png

http://lookpic.com/i/130/cWDTw7Rp.png

http://lookpic.com/i/319/8bvJ9vp1.png



[color="yellow"]GREETS:[/color]

FLAWL3SS,ViSiON,DEViSE,FUSiON,STG,SecretMyth,Lynks
And to all the other p2p grps past and present

http://torrent-stats.info/da23/6036b3fe.png

Related torrents

Torrent NameAddedSizeSeedLeechHealth
1 Year+ - in Movies1.41 GB10569
1 Year+ - in Movies713.15 MB3029
1 Year+ - in Movies713.15 MB00
1 Year+ - in Movies691.97 MB2218
1 Year+ - in Movies705.79 MB2124

Comments (0 Comments)




Please login or create a FREE account to post comments

Latest Searches

| At the End of the World A True Story of Murder in the Arctic 2017 | ariana grande break free ft zedd lyrics | January 2017 top chart | Zayn I dont wanna | MOM Take Me Tonight | vince staples amen | VA Essential R n B CD 2 of 3 Un Mixed R B | celtic woman never walk alone | hurt o | Chicago Med S02E10 WEB DL XviD FUMettv |