Quick Browse
Movies
TV shows
Music
Games
Applications
Anime
Other
Facebook
Advertising

Friends
Torrent Download
Movie4u
1337x.to
Torrent Downloads




Verified torrent August Rush 2007 BRRip H264 AAC-MANTESHWER


    Seeders : 1      Leechers : 0
Hash :37F5C356DC355E1BECB5A1685766D69A6A9FB266
Added :1 Year+ by SAHIBGREWVerified torrent uploader in Movies
Size :1.68 GB
Stream :WATCH ONLINE @ Movie4u


August Rush 2007 BRRip H264 AAC-MANTESHWER
Free and Fast Download with Usenet 300GB+ free







Trackers List

Tracker NameLast CheckStatusSeedersLeechers
udp://tracker.coppersurfer.tk:801 Year+success10
udp://9.rarbg.com:2710/announce1 Year+success10
http://tracker.nwps.ws:6969/announce1 Year+success00
http://bigfoot1942.sektori.org:6969/announce1 Year+success00
http://announce.torrentsmd.com:6969/announce1 Year+success00
http://tracker.best-torrents.net:6969/announce1 Year+success00
http://torrent.gresille.org/announce1 Year+success00
http://tracker.windsormetalbattery.com/announce1 Year+success00
udp://open.demonii.com:1337/announce1 Year+success00
http://tracker.trackerfix.com/announce1 Year+success00




Torrent File Content (7 files)


August Rush 2007 BRRip H264 AAC-MS
     August Rush 2007 BRRip H264 AAC-MS.mp4 -
1.67 GB

     August Rush.jpg -
148.76 KB

     INFO.txt -
1.44 KB

     Torrent downloaded from AhaShare.com.txt -
59 bytes

     Torrent downloaded from thepiratebay.org.txt -
48 bytes

     Torrent downloaded from Demonoid.com.txt -
47 bytes

     tracked_by_h33t_com.txt -
23 bytes



Description



http://i865.photobucket.com/albums/ab211/revisionx/Movies/AugustRush.jpg



August Rush 2007 BRRip H264 AAC-MS.mp4
Format : MPEG-4
Format profile : Base Media
Codec ID : isom
File size : 1.67 GiB
Duration : 1h 53mn
Overall bit rate : 2 110 Kbps

IMDB:http://www.imdb.com/title/tt0426931

Video #1
Format : AVC
Format/Info : Advanced Video Codec
Format profile : [email protected]
Format settings, CABAC : Yes
Format settings, ReFrames : 3 frames
Codec ID : avc1
Codec ID/Info : Advanced Video Coding
Duration : 1h 53mn
Bit rate mode : Variable
Bit rate : 1 800 Kbps
Maximum bit rate : 11.6 Mbps
Width : 1 280 pixels
Height : 528 pixels
Display aspect ratio : 2.424
Frame rate mode : Constant
Frame rate : 23.976 fps
Resolution : 24 bits
Colorimetry : 4:2:0
Scan type : Progressive
Bits/(Pixel*Frame) : 0.111
Stream size : 1.43 GiB (85%)
Writing library : x264 core 80 r1376M 3feaec2

Audio #2
Format : AAC
Format/Info : Advanced Audio Codec
Format version : Version 4
Format profile : LC
Format settings, SBR : No
Codec ID : 40
Duration : 1h 53mn
Bit rate mode : Variable
Bit rate : 308 Kbps
Maximum bit rate : 448 Kbps
Channel(s) : 6 channels
Channel positions : Front: L C R, Rear: L R, LFE
Sampling rate : 48.0 KHz
Resolution : 16 bits
Stream size : 250 MiB (15%)



http://i865.photobucket.com/albums/ab211/revisionx/Screenshot/vlcsnap-401184.jpg

http://i865.photobucket.com/albums/ab211/revisionx/Screenshot/vlcsnap-401552.jpg

http://i865.photobucket.com/albums/ab211/revisionx/Screenshot/vlcsnap-401865.jpg

Related torrents

Torrent NameAddedSizeSeedLeechHealth
1 Year+ - in Movies1.43 GB17
1 Year+ - in Movies3.15 GB00
1 Year+ - in Movies2.02 GB11
1 Year+ - in Movies2.19 GB021
1 Year+ - in Other2.17 GB610

Comments (0 Comments)




Please login or create a FREE account to post comments

Latest Searches

| The Walking Dead Now | ITS A VERY MERRY MUPPET CHRISTMAS MOVIE 1080p | ratchet film ita | Study Smarter | came a hot friday | Playboy Mexico august | naked ford | you eyes only | Public Pick Ups Ivy Rose | The Finest Hours 2016 1080p BluRay x264 DTS JYK |