Quick Browse
Movies
TV shows
Music
Games
Applications
Anime
Other
Facebook
Advertising

Friends
Torrent Download
Movie4u
1337x.to
Torrent Downloads




Avatar 2009 DVDSCR XviD AC3-ViSiON


    Seeders : 1100      Leechers : 2785
Hash :A32F01C2D58F48BFCA6215CA0EDEAA31724543F6
Added :1 Year+ in Movies
Size :2.21 GB
Stream :WATCH ONLINE @ Movie4u


Avatar 2009 DVDSCR XviD AC3-ViSiON
Free and Fast Download with Usenet 300GB+ free







Trackers List

Tracker NameLast CheckStatusSeedersLeechers




Torrent File Content (3 files)


Avatar 2009 DVDSCR XVID www.IWANNADOWNLOAD.com
     AVATAR 2009 DVDSCR www.IWANNADOWNLOAD.com.avi -
2.19 GB

     SAMPLE.avi -
21.66 MB

     Avatar INFO www.IWANNADOWNLOAD.com.txt -
2.51 KB



Description



http://i50.tinypic.com/2n6w8z5.jpg


Filename:
Avatar 2009 DVDSCR XviD AC3-ViSiON

http://www.imdb.com/title/tt0499549/

Format : AVI
Format/Info : Audio Video Interleave
Format profile : OpenDML
File size : 2.19 GiB
Duration : 2h 36mn
Overall bit rate : 1 993 Kbps
Writing application : VirtualDubMod 1.5.10.2 (build 2542/release)
Writing library : VirtualDubMod build 2542/release

Video
ID : 0
Format : MPEG-4 Visual
Format profile : [email protected]
Format settings, BVOP : Yes
Format settings, QPel : No
Format settings, GMC : No warppoints
Format settings, Matrix : Default (H.263)
Muxing mode : Packed bitstream
Codec ID : XVID
Codec ID/Hint : XviD
Duration : 2h 36mn
Bit rate : 1 789 Kbps
Width : 720 pixels
Height : 400 pixels
Display aspect ratio : 16:9
Frame rate : 23.976 fps
Resolution : 24 bits
Colorimetry : 4:2:0
Scan type : Progressive
Bits/(Pixel*Frame) : 0.259
Stream size : 1.96 GiB (90%)
Writing library : XviD 1.2.1 (UTC 2008-12-04)

Audio
ID : 1
Format : AC-3
Format/Info : Audio Coding 3
Codec ID : 2000
Duration : 2h 36mn
Bit rate mode : Constant
Bit rate : 192 Kbps
Channel(s) : 2 channels
Channel positions : L R
Sampling rate : 48.0 KHz
Stream size : 216 MiB (10%)
Alignment : Split accross interleaves
Interleave, duration : 42 ms (1.00 video frame)
Interleave, preload duration : 500 ms

http://i48.tinypic.com/2s0zqs2.jpg

http://i45.tinypic.com/2u5famv.jpg

http://i49.tinypic.com/2z3qcfd.jpg

http://i50.tinypic.com/6iecyf.jpg

http://i46.tinypic.com/2s847bs.jpg


Best Version yet!!!


Related torrents

Torrent NameAddedSizeSeedLeechHealth
1 Year+ - in Movies2.21 GB1,1142,214
1 Year+ - in Movies2.21 GB197183
1 Year+ - in Movies1.47 GB1745
1 Year+ - in Movies1.47 GB00
1 Year+ - in Movies1.46 GB32

Comments (0 Comments)




Please login or create a FREE account to post comments

Latest Searches

| The hangover road trip | without fight demi | Gaga For Raga Fareed Haque | AFTERMATH S01E11 | sky hits | you did wrong | Busters A Parody | massage 304 | DVS Saxophone | julia ann ryan |