Quick Browse
Movies
TV shows
Music
Games
Applications
Anime
Other
Facebook
Advertising

Friends
Torrent Download
Movie4u
1337x.to
Torrent Downloads




Verified torrent B.o.B. - Dont Let Me Fall [KingPinVideos]


    Seeders : 104      Leechers : 10
Hash :FEE506523567D18370A79B2470F4450A8CB33F69
Added :1 Year+ by KingPinVerified torrent uploader in Music - Music Videos
Size :81.07 MB
Stream :WATCH ONLINE @ Movie4u


B.o.B. - Dont Let Me Fall [KingPinVideos]
Free and Fast Download with Usenet 300GB+ free







Trackers List

Tracker NameLast CheckStatusSeedersLeechers




Torrent File Content (5 files)


B.o.B. - Dont Let Me Fall [KingPinVideos]
     B.o.B. - Dont Let Me Fall [KingPinVideos].mpg -
81.07 MB

     B.o.B. - Dont Let Me Fall [KingPinVideos].nfo -
1.81 KB

     B.o.B. - Dont Let Me Fall [KingPinVideos].txt -
1.63 KB

     Torrent downloaded from Demonoid.com.txt -
47 bytes

     Torrent Downloaded from Limetorrents.com.txt -
46 bytes



Description



http://img696.imageshack.us/img696/151/bobdontfall.png


http://img822.imageshack.us/img822/4444/bobdontfall2.png


[code]General
Complete name : B.o.B. - Dont Let Me Fall [KingPinVideos].mpg
Format : MPEG-PS
File size : 81.1 MiB
Duration : 3mn 58s
Overall bit rate : 2 856 Kbps
Writing library : encoded by TMPGEnc 4.0 XPress Version. 4.7.4.299

Video
ID : 224 (0xE0)
Format : MPEG Video
Format version : Version 1
Format settings, BVOP : Yes
Format settings, Matrix : Default
Duration : 3mn 58s
Bit rate mode : Constant
Bit rate : 2 615 Kbps
Nominal bit rate : 2 700 Kbps
Width : 384 pixels
Height : 208 pixels
Display aspect ratio : 16:9
Frame rate : 29.970 fps
Resolution : 8 bits
Scan type : Progressive
Bits/(Pixel*Frame) : 1.092
Stream size : 74.2 MiB (92%)
Writing library : TMPGEnc XPress 4.7.4.299

Audio
ID : 192 (0xC0)
Format : MPEG Audio
Format version : Version 1
Format profile : Layer 2
Duration : 3mn 58s
Bit rate mode : Constant
Bit rate : 128 Kbps
Channel(s) : 2 channels
Sampling rate : 48.0 KHz
Stream size : 3.63 MiB (4%)[/code]

Related torrents

Torrent NameAddedSizeSeedLeechHealth
1 Year+ - in Music8.41 MB12
1 Year+ - in Music8.4 MB00
5 months ago - in Other8.13 MB00
1 Year+ - in Music48.77 MB00
1 Year+ - in Music34.09 MB00

Comments (0 Comments)




Please login or create a FREE account to post comments

Latest Searches

| n1206 | j cole day | teeny black amilian | 177 | lil wayne runnin | full album hillsong | lil wayne runnin | prince | samjhawan alia | Salem S03E05 WEB DL XviD FUMettv |