Quick Browse
Movies
TV shows
Music
Games
Applications
Anime
Other
Facebook
Advertising

Friends
Torrent Download
Movie4u
1337x.to
Torrent Downloads




Verified torrent B.o.B. ft Rivers Cuomo - Magic


    Seeders : 1      Leechers : 0
Hash :F04039B51837C3C403D67B9B9C90C7BF25DFAECF
Added :1 Year+ by KingPinVerified torrent uploader in Music - Music Videos
Size :69.59 MB
Stream :WATCH ONLINE @ Movie4u


B.o.B. ft Rivers Cuomo - Magic
Free and Fast Download with Usenet 300GB+ free







Trackers List

Tracker NameLast CheckStatusSeedersLeechers




Torrent File Content (5 files)


B.o.B. ft Rivers Cuomo - Magic [KingPinVideos]
     B.o.B. ft Rivers Cuomo - Magic [KingPinVideos].mpg -
69.58 MB

     B.o.B. ft Rivers Cuomo - Magic [KingPinVideos].nfo -
2.07 KB

     B.o.B. ft Rivers Cuomo - Magic [KingPinVideos].txt -
1.64 KB

     Torrent downloaded from Demonoid.com.txt -
47 bytes

     Torrent Downloaded from Limetorrents.com.txt -
46 bytes



Description



http://a.imageshack.us/img155/2817/bobmagic.png


http://a.imageshack.us/img534/4079/bobmagic2.png


[code]General
Complete name : B.o.B. ft Rivers Cuomo - Magic [KingPinVideos].mpg
Format : MPEG-PS
File size : 69.6 MiB
Duration : 3mn 24s
Overall bit rate : 2 857 Kbps
Writing library : encoded by TMPGEnc 4.0 XPress Version. 4.7.4.299

Video
ID : 224 (0xE0)
Format : MPEG Video
Format version : Version 1
Format settings, BVOP : Yes
Format settings, Matrix : Default
Duration : 3mn 24s
Bit rate mode : Constant
Bit rate : 2 615 Kbps
Nominal bit rate : 2 700 Kbps
Width : 384 pixels
Height : 208 pixels
Display aspect ratio : 16:9
Frame rate : 29.970 fps
Resolution : 8 bits
Scan type : Progressive
Bits/(Pixel*Frame) : 1.092
Stream size : 63.7 MiB (92%)
Writing library : TMPGEnc XPress 4.7.4.299

Audio
ID : 192 (0xC0)
Format : MPEG Audio
Format version : Version 1
Format profile : Layer 2
Duration : 3mn 24s
Bit rate mode : Constant
Bit rate : 128 Kbps
Channel(s) : 2 channels
Sampling rate : 48.0 KHz
Stream size : 3.12 MiB (4%)[/code]

Related torrents

Torrent NameAddedSizeSeedLeechHealth
1 Year+ - in Music8.37 MB00
1 Year+ - in Music62.54 MB34
9 months ago - in Other16.95 MB00
1 Year+ - in Music86.61 MB09
1 Year+ - in Music4.6 MB120

Comments (0 Comments)




Please login or create a FREE account to post comments

Latest Searches

| Young Hard Transsexuals 5 | BSkow Contrast 720p MP4 KTR | Kayla Kayden Phoenix 2 Chicks Same Time | santa lektor pl | thelifeerotic 16 12 04 rebeka ruby puffy pussy 2 1080p mp4 ktr n1c | Beauty And The Senior 4 720p WEBRip MP4 VSEX | aDimitri Vegas | Choices An Introduction To Decision Theory 1987 pdf Gooner | Cheaper by the Dozen 1080p BluRay | font 1800 |