Quick Browse
Movies
TV shows
Music
Games
Applications
Anime
Other
Facebook
Friends
Torrent Download
Free Movies
1337x.to
Torrent Downloads

Verified torrent BENAM 1978 DVDRIP XVID UNTOUCH AC3 Striker WBZ


    Seeders : 1      Leechers : 0
Hash :7C008A43EC6C875CFE22A13EAC0955482C9471C0
Added :1 Year+ by striker123Verified torrent uploader in Movies
Size :1.48 GB
Stream :Watch Full Movies Online @ Movie4u
Share :


BENAM 1978 DVDRIP XVID UNTOUCH AC3 Striker WBZ
Anonymous and Direct Download 300GB+ free







Warning! Do not Download Torrents Without a VPN!
Your IP Address is .   Location is
Your Internet Provider and Government can track your torrent Activity!  Hide your IP ADDRESS with a VPN!
We Strongly Recommend Using SpyOFF VPN to Anonymize your Torrenting. It's FREE!

Note :

Please Update (Trackers Info) Before Downloading Torrents to See Updated Seeders And Leechers for Batter Download Speed.

Trackers List

Tracker NameLast CheckStatusSeedersLeechers




Torrent File Content (12 files)


BENAM 1978 DVDRIP XVID UNTOUCH AC3 Striker WBZ
     BENAM 1978 DVDRIP XVID UNTOUCH AC3 Striker WBZ.avi -
1.45 GB

     Sample.avi -
29.34 MB

    Screens
          1.jpg -
38.38 KB

          10.jpg -
50.92 KB

          2.jpg -
45.54 KB

          3.jpg -
53.25 KB

          4.jpg -
41.28 KB

          5.jpg -
49.72 KB

          6.jpg -
44.94 KB

          7.jpg -
37.81 KB

          8.jpg -
35.72 KB

          9.jpg -
50.65 KB



Description



http://lh3.ggpht.com/lipgloss14/R0s3TcDGrxI/AAAAAAAAEqU/y1G1sganUnw/1974-g-Benaam.jpg


[code]General
Format : AVI
Format/Info : Audio Video Interleave
File size : 1.45 GiB
Duration : 1h 57mn
Overall bit rate : 1 776 Kbps

Video
ID : 0
Format : MPEG-4 Visual
Format profile : Advanced [email protected]
Format settings, BVOP : 2
Format settings, QPel : No
Format settings, GMC : No warppoints
Format settings, Matrix : Default (H.263)
Codec ID : XVID
Codec ID/Hint : XviD
Duration : 1h 57mn
Bit rate : 1 383 Kbps
Width : 704 pixels
Height : 480 pixels
Display aspect ratio : 3:2
Frame rate : 29.970 fps
Standard : NTSC
Color space : YUV
Chroma subsampling : 4:2:0
Bit depth : 8 bits
Scan type : Progressive
Compression mode : Lossy
Bits/(Pixel*Frame) : 0.137
Stream size : 1.13 GiB (78%)
Writing library : XviD 1.2.1 (UTC 2008-12-04)

Audio
ID : 1
Format : AC-3
Format/Info : Audio Coding 3
Mode extension : CM (complete main)
Codec ID : 2000
Duration : 1h 57mn
Bit rate mode : Constant
Bit rate : 384 Kbps
Channel(s) : 6 channels
Channel positions : Front: L C R, Side: L R, LFE
Sampling rate : 48.0 KHz
Bit depth : 16 bits
Compression mode : Lossy
Stream size : 322 MiB (22%)
Alignment : Aligned on interleaves
Interleave, duration : 64 ms (1.92 video frames)
Interleave, preload duration : 192 ms
Title : Striker[WBZ] [/code]

http://pic.phyrefile.com/s/sh/shahaz/2011/04/12/1_003.jpg

http://pic.phyrefile.com/s/sh/shahaz/2011/04/12/2_003.jpg

http://pic.phyrefile.com/s/sh/shahaz/2011/04/12/3_002.jpg

http://pic.phyrefile.com/s/sh/shahaz/2011/04/12/4_002.jpg

http://pic.phyrefile.com/s/sh/shahaz/2011/04/12/5_002.jpg

http://pic.phyrefile.com/s/sh/shahaz/2011/04/12/6_002.jpg

http://pic.phyrefile.com/s/sh/shahaz/2011/04/12/7_002.jpg

http://pic.phyrefile.com/s/sh/shahaz/2011/04/12/8_002.jpg

http://pic.phyrefile.com/s/sh/shahaz/2011/04/12/9_002.jpg

http://pic.phyrefile.com/s/sh/shahaz/2011/04/12/10_002.jpg


Related torrents

Torrent NameAddedSizeSeedLeechHealth
Verified torrent
1 Year+ - in Movies1.23 GB10
Verified torrent
1 Year+ - in Movies1.47 GB10
Verified torrent
1 Year+ - in Movies1.47 GB00
Verified torrent
1 Year+ - in Movies1.48 GB10
Verified torrent
1 Year+ - in Movies1.38 GB10

Comments (0 Comments)




Please login or create a FREE account to post comments

Latest Searches

| Lonely Akon | trial family | tom thorne 1 | Logan Noir | JUST FOR THE Z | Mahou Sensei Negima Shiroki Tsubasa Ala Alba | Foghat Return of the Boogie Man 1994 | behemoth music | The Great Crash 1929 The Great Crash 1929 | young |