Quick Browse
Movies
TV shows
Music
Games
Applications
Anime
Other

Donate and Support

Friends
Torrents.me
Torrent Download
Free Movies
1337x
RARBG
Torrent Downloads

Verified torrent BULANDI 1980 DVDRIP XVID UNTOUCH AC3 Striker WBZ


    Seeders : 1      Leechers : 0
Hash :E55653DA059FA4D6708D196953E8E4CB803C0A1A
Added :1 Year+ by striker123Verified torrent uploader in Movies
Size :1.38 GB
Stream :Watch Full Movies Online @ Movie4u
Share :


BULANDI 1980 DVDRIP XVID UNTOUCH AC3 Striker WBZ
Anonymous and free Direct Download







Warning! Do not Download Torrents Without a VPN!
Your IP Address is .   And Location is
Your Internet Provider and Government can track your torrent Activity!  Hide your IP ADDRESS with a VPN!
We Strongly Recommend Using SpyOFF Torrent VPN to Anonymize your Torrenting. It's FREE For 15 Days!

Note :

Please Update (Trackers Info) Before Downloading Torrents to See Updated Seeders And Leechers for Batter Download Speed.

Trackers List

Tracker NameLast CheckStatusSeedersLeechers




Torrent File Content (12 files)


BULANDI 1980 DVDRIP XVID UNTOUCH AC3 Striker WBZ
     BULANDI 1980 DVDRIP XVID UNTOUCH AC3 Striker WBZ.avi -
1.37 GB

     Sample.avi -
17.32 MB

    Screens
          1.jpg -
51.31 KB

          10.jpg -
31.67 KB

          2.jpg -
48.08 KB

          3.jpg -
32.14 KB

          4.jpg -
34.92 KB

          5.jpg -
30.33 KB

          6.jpg -
43.78 KB

          7.jpg -
35.7 KB

          8.jpg -
31.63 KB

          9.jpg -
23.91 KB



Description



http://premium.moviespack.com/blog/wp-content/uploads/2009/07/Bulandi-1980.JPG


[code]General
Format : AVI
Format/Info : Audio Video Interleave
File size : 1.37 GiB
Duration : 2h 41mn
Overall bit rate : 1 209 Kbps
Writing application : VirtualDubMod 1.5.10.2 (build 2540/release)
Writing library : VirtualDubMod build 2540/release

Video
ID : 0
Format : MPEG-4 Visual
Format profile : Advanced [email protected]
Format settings, BVOP : 2
Format settings, QPel : No
Format settings, GMC : No warppoints
Format settings, Matrix : Default (H.263)
Codec ID : XVID
Codec ID/Hint : XviD
Duration : 2h 41mn
Bit rate : 973 Kbps
Width : 640 pixels
Height : 336 pixels
Display aspect ratio : 1.905
Frame rate : 29.970 fps
Color space : YUV
Chroma subsampling : 4:2:0
Bit depth : 8 bits
Scan type : Progressive
Compression mode : Lossy
Bits/(Pixel*Frame) : 0.151
Stream size : 1.10 GiB (80%)
Writing library : XviD 1.2.1 (UTC 2008-12-04)

Audio
ID : 1
Format : AC-3
Format/Info : Audio Coding 3
Mode extension : CM (complete main)
Codec ID : 2000
Duration : 2h 41mn
Bit rate mode : Constant
Bit rate : 224 Kbps
Channel(s) : 2 channels
Channel positions : Front: L R
Sampling rate : 48.0 KHz
Bit depth : 16 bits
Compression mode : Lossy
Stream size : 259 MiB (19%)
Alignment : Split accross interleaves
Interleave, duration : 33 ms (1.00 video frame)
Interleave, preload duration : 500 ms [/code]


http://pic.phyrefile.com/s/sh/shahaz/2011/04/12/1_004.jpg

http://pic.phyrefile.com/s/sh/shahaz/2011/04/12/2_004.jpg

http://pic.phyrefile.com/s/sh/shahaz/2011/04/12/3_003.jpg

http://pic.phyrefile.com/s/sh/shahaz/2011/04/12/4_003.jpg

http://pic.phyrefile.com/s/sh/shahaz/2011/04/12/5_003.jpg

http://pic.phyrefile.com/s/sh/shahaz/2011/04/12/6_003.jpg

http://pic.phyrefile.com/s/sh/shahaz/2011/04/12/7_003.jpg

http://pic.phyrefile.com/s/sh/shahaz/2011/04/12/8_003.jpg

http://pic.phyrefile.com/s/sh/shahaz/2011/04/12/9_003.jpg

http://pic.phyrefile.com/s/sh/shahaz/2011/04/12/10_003.jpg


Related torrents

Torrent NameAddedSizeSeedLeechHealth
Verified torrent
1 Year+ - in Movies1.23 GB10
Verified torrent
1 Year+ - in Movies1.47 GB11
Verified torrent
1 Year+ - in Movies1.47 GB00
Verified torrent
1 Year+ - in Movies1.48 GB10
Verified torrent
1 Year+ - in Movies1.48 GB10

Comments (0 Comments)




Please login or create a FREE account to post comments

Latest Searches

| capital cities safe and sound markus schulz vs grube hovsepian | Def Leppard Acoustic | um hmm | She Hulk XXX An Axel Braun Parody 2013 | preston dinner | lil fly honeys | music2pc Portable | rajadhi raja the real don | aria solo | torrent 4 apk |