Quick Browse
Movies
TV shows
Music
Games
Applications
Anime
Other
Facebook
Advertising

Friends
Torrent Download
Movie4u
1337x.to
Torrent Downloads




Baat Ek Raat Ki 1962 2CD DvDrip ~ Dev Anand Classic ~ [RdY]


    Seeders : 1      Leechers : 3

Trackers List

Tracker NameLast CheckStatusSeedersLeechers




Torrent File Content (2 files)


Baat Ek Raat Ki 1962 2CD DvDrip ~ Dev Anand Classic ~ [RdY]
     Baat Ek Raat Ki 1962 CD1 DvDrip ~ Dev Anand Classic ~ [RdY].avi -
698.92 MB

     Baat Ek Raat Ki 1962 CD2 DvDrip ~ Dev Anand Classic ~ [RdY].avi -
698.71 MB



Description



[URL=http://desibbrg.org/]
http://desibbrg.org/images/49209469424045256741.jpg
[/URL]

http://desibbrg.net/imghost/out.php?i=402137_screenxht.png


[URL=http://desibbrg.org/]
http://desibbrg.org/images/97474209856279939764.png
[/URL]

[URL=http://desibbrg.org/]
http://desibbrg.org/images/00719513486790432481.png
[/URL]

[URL=http://desibbrg.org/]
http://desibbrg.org/images/57204599219533817988.png
[/URL]

[URL=http://desibbrg.org/]
http://desibbrg.org/images/10576658716745982868.png
[/URL]

[URL=http://desibbrg.org/]
http://desibbrg.org/images/26450304906675195866.png
[/URL]

[URL=http://desibbrg.org/]
http://desibbrg.org/images/59162196815012635533.png
[/URL]

[URL=http://desibbrg.org/]
http://desibbrg.org/images/40148245259082087187.png
[/URL]

[URL=http://desibbrg.org/]
http://desibbrg.org/images/99021635631363544585.png
[/URL]

http://desibbrg.net/imghost/out.php?i=402136_plotj.png


Seema is in police custody for committing a murder. Believing that she did it, she confesses. When renowned lawyer, Rajeshwar decides to represent her, he accepts her guilt, but as he goes deep into the details of her story and the circumstances, he is not sure any more. What could have placed Seema at the scene of this heinous crime?

[URL=http://desibbrg.org/]
http://desibbrg.org/images/57644488382407163986.png
[/URL]

Dev Anand, Waheeda Rehman, Jagdish Sethi, Chandrashekhar, Johny Walker, Asit Sen, Ulhas, Sabia Chatterjee

http://desibbrg.net/imghost/out.php?i=402135_inf0.png


Director : Shankar Mukherjee
Producer : Alankar Chitra
Music director : S D Burman
Release date : 1962

Title : Baat Ek Raat Ki 1962 2CD DvDrip ~ Dev Anand Classic ~ [RdY]
Format : AVI
Format/Info : Audio Video Interleave
File size : 1.36 GB
Overall bit rate : 1 517 Kbps
Writing application : VirtualDubMod 1.5.10.2 (build 2542/release)
Writing library : VirtualDubMod build 2542/release

Video
Format : MPEG-4 Visual
Format profile : Streaming [email protected]
Format settings, BVOP : Yes
Format settings, QPel : No
Format settings, GMC : No warppoints
Format settings, Matrix : Default
Codec ID : XVID
Codec ID/Hint : XviD
Bit rate : 1 315 Kbps
Width : 608 pixels
Height : 448 pixels
Display aspect ratio : 4/3
Frame rate : 25.000 fps
Resolution : 24 bits
Colorimetry : 4.2.0
Scan type : Progressive
Bits/(Pixel*Frame) : 0.193
Stream size : 606 MiB (87%)
Writing library : XviD 50

Audio
Format : AC-3
Format/Info : Audio Coding 3
Codec ID : 2000
Bit rate mode : Constant
Bit rate : 192 Kbps
Channel(s) : 2 channels
Channel positions : L R
Sampling rate : 48.0 KHz
Stream size : 88.5 MiB (13%)
Alignment : Split accross interleaves
Interleave, duration : 40 ms (1.00 video frame)
Interleave, preload duration : 500 ms


[CENTER][URL=http://desibbrg.org/]
http://desibbrg.org/images/37740721422241424385.gif
[/URL][/CENTER]

Related torrents

Torrent NameAddedSizeSeedLeechHealth
1 Year+ - in Movies1.01 GB00
1 Year+ - in Movies653.23 MB10
1 Year+ - in Movies810.31 MB12
1 Year+ - in Movies700.38 MB11
1 Year+ - in Movies871.01 MB13

Comments (0 Comments)




Please login or create a FREE account to post comments

Latest Searches

| Hugo 2011 yify mkv | supergirl s01e11 x264 | the american west s01e06 1080p | supergirl s01e10 x264 | nl epub amanda | supergirl s01e09 x264 | L Odysse | Royce Da 59 Trust The Shooter | csi n y season 5 | supergirl s01e08 x264 |