Quick Browse
Movies
TV shows
Music
Games
Applications
Anime
Other
Facebook
Advertising

Friends
Torrent Download
Movie4u
1337x.to
Torrent Downloads




Bagnomaria [XviD Ita] Giorgio Panariello [TNT Village]


    Seeders : 16      Leechers : 1
Hash :D5FF1A0478D3A2CB8B20B0C27C349F96FD43A315
Added :1 Year+ in Movies
Size :699.44 MB
Stream :WATCH ONLINE @ Movie4u


Bagnomaria [XviD Ita] Giorgio Panariello [TNT Village]
Free and Fast Download with Usenet 300GB+ free







Trackers List

Tracker NameLast CheckStatusSeedersLeechers
http://tracker.tntvillage.scambioetico.org:2710/announce1 Year+success161
udp://tracker.tntvillage.scambioetico.org:2710/announce1 Year+success161
udp://tracker.publicbt.com:80/announce1 Year+success60
udp://tracker.openbittorrent.com:80/announce1 Year+success50




Torrent File Content (1 file)


     Bagnomaria.1999.iTALiAN.DVDRip.XviD-PMB5.avi -
699.44 MB



Description



[url=http://forum.tntvillage.scambioetico.org/tntforum/index.php?showtopic=178088].: 

Scheda Originale :.[/url]

.: Trama :.

Il film si compone di quattro episodi tutti ambientati in Versilia. Il personaggio centrale di ogni episodio è sempre interpretato da Panariello. Nel primo Simone, un bambino che scappa da un collegio, si innamora di una ragazza (Manuela Arcuri) che vende bomboloni ed è sposata con uno dei vigili urbani del paese. Nel secondo un sindaco conservatore si scontra con il figlio PR che conduce una vita completamente opposta a quella del padre. Nel terzo episodio Merigo, un noto ubriacone, diventa oggetto di uno scherzo molto pesante da parte dei frequentatori di un bar: viene inviato ad un funerale a ritirare la salma del "BRUNELLO", convinto invece di andar a prendere delle casse del famoso vino di Montalcino. Nel quarto episodio un bagnino, Mario, cercherà di salvare dal fallimento il bagno per il quale lavora: il "Bagno Maria" di proprietà della signora Bice. Sfiderà in una gara di apnea il suo collega e bagnino russo del bagno ultra tecnologico confinante al suo.

.: Locandina :.

http://filmup.leonardo.it/posters/loc/500/bagnomaria.jpg


.: Scheda :.

Titolo: Bagnomaria
Lingua originale: Italiano
Paese: Italia
Anno: 1999
Durata: 90'
Genere: commedia
Regia: Giorgio Panariello
Soggetto: Giorgio Panariello
Sceneggiatura: Leonardo Benvenuti, Piero De Bernardi, Giorgio Panariello
Produttore: Vittorio Cecchi Gori, Rita Rusic
Produttore esecutivo:
Casa di produzione: Cecchi Gori Group Tiger Cinematografica
Distribuzione (Italia): Cecchi Gori Group

========================================

.: Dati tecnici del file :.

General
Complete name : Dvdrip/Bagnomaria.1999.iTALiAN.DVDRip.XviD-PMB5.avi
Format : AVI
Format/Info : Audio Video Interleave
File size : 699 MiB
Duration : 1h 26mn
Overall bit rate : 1 128 Kbps
Writing application : VirtualDubMod 1.5.10.2 (build 2540/release)
Writing library : VirtualDubMod build 2540/release

Video
ID : 0
Format : MPEG-4 Visual
Format profile : [email protected]
Format settings, BVOP : Yes
Format settings, QPel : No
Format settings, GMC : No warppoints
Format settings, Matrix : Default (H.263)
Codec ID : XVID
Codec ID/Hint : XviD
Duration : 1h 26mn
Bit rate : 988 Kbps
Width : 544 pixels
Height : 304 pixels
Display aspect ratio : 16/9
Frame rate : 25.000 fps
Resolution : 24 bits
Colorimetry : 4:2:0
Scan type : Progressive
Bits/(Pixel*Frame) : 0.239
Stream size : 613 MiB (88%)
Writing library : XviD 1.2.1 (UTC 2008-12-04)

Audio
ID : 1
Format : MPEG Audio
Format version : Version 1
Format profile : Layer 3
Codec ID : 55
Codec ID/Hint : MP3
Duration : 1h 26mn
Bit rate mode : Variable
Bit rate : 127 Kbps
Nominal bit rate : 128 Kbps
Channel(s) : 2 channels
Sampling rate : 48.0 KHz
Resolution : 16 bits
Stream size : 78.7 MiB (11%)
Alignment : Aligned on interleaves
Interleave, duration : 24 ms (0.60 video frame)
Interleave, preload duration : 395 ms
Writing library : LAME3.90.
Encoding settings : -m j -V 4 -q 2 -lowpass 17.6 --abr 128

Related torrents

Torrent NameAddedSizeSeedLeechHealth
19 days ago - in Other100.88 MB00
Verified torrent
6 months ago - in Movies2.42 GB5418
1 Year+ - in Movies7.15 GB711
Verified torrent
1 Year+ - in TV shows719.26 MB214
Verified torrent
1 Year+ - in Anime766.58 MB139

Comments (0 Comments)




Please login or create a FREE account to post comments

Latest Searches

| Lexi Ryan stiletto | NaughtyAmerica Avi Love Ryan Driller | Comic Book Men S03E10 720p WEB DL AAC2 0 H 264 SMODOMiTE | o confronto final dublado | E R G Pro V1 0 Zip | rushlights 2013 wd2dvd pal dd5 1 nl subs | cypress s | Lilo and Stitch 2002 Dual Audio | coalgirls shiki | my milkshake is thick |