Quick Browse
Movies
TV shows
Music
Games
Applications
Anime
Other
Facebook
Advertising

Friends
Torrent Download
Movie4u
1337x.to
Torrent Downloads




Verified torrent Band Of Brothers - (Complete)


    Seeders : 1      Leechers : 22
Hash :182C9E2047D93835C323CC57B39F74EE7B5493D6
Added :1 Year+ by HannspreeVerified torrent uploader in Movies
Size :8.39 GB
Stream :WATCH ONLINE @ Movie4u


Band Of Brothers - (Complete)
Free and Fast Download with Usenet 300GB+ free







Trackers List

Tracker NameLast CheckStatusSeedersLeechers




Torrent File Content (52 files)


Band Of Brothers - (Complete)
    Band Of Brothers - (Complete) Disc 1
          VIDEO_TS/VIDEO_TS.BUP -
16 KB

          VIDEO_TS/VIDEO_TS.IFO -
16 KB

          VIDEO_TS/VIDEO_TS.VOB -
3.14 MB

          VIDEO_TS/VTS_01_0.BUP -
56 KB

          VIDEO_TS/VTS_01_0.IFO -
56 KB

          VIDEO_TS/VTS_01_0.VOB -
5.26 MB

          VIDEO_TS/VTS_01_1.VOB -
1004.55 MB

          VIDEO_TS/VTS_02_0.BUP -
46 KB

          VIDEO_TS/VTS_02_0.IFO -
46 KB

          VIDEO_TS/VTS_02_0.VOB -
6.99 MB

          VIDEO_TS/VTS_02_1.VOB -
706.09 MB

          VIDEO_TS/VTS_03_0.BUP -
52 KB

          VIDEO_TS/VTS_03_0.IFO -
52 KB

          VIDEO_TS/VTS_03_0.VOB -
7.09 MB

          VIDEO_TS/VTS_03_1.VOB -
915.02 MB

          VIDEO_TS/VTS_04_0.BUP -
48 KB

          VIDEO_TS/VTS_04_0.IFO -
48 KB

          VIDEO_TS/VTS_04_0.VOB -
7.21 MB

          VIDEO_TS/VTS_04_1.VOB -
838.99 MB

          VIDEO_TS/VTS_05_0.BUP -
46 KB

          VIDEO_TS/VTS_05_0.IFO -
46 KB

          VIDEO_TS/VTS_05_0.VOB -
7.32 MB

          VIDEO_TS/VTS_05_1.VOB -
794.9 MB

    Band Of Brothers - (Complete) Disc 2
          VIDEO_TS/VIDEO_TS.BUP -
16 KB

          VIDEO_TS/VIDEO_TS.IFO -
16 KB

          VIDEO_TS/VIDEO_TS.VOB -
3.21 MB

          VIDEO_TS/VTS_01_0.BUP -
52 KB

          VIDEO_TS/VTS_01_0.IFO -
52 KB

          VIDEO_TS/VTS_01_0.VOB -
6.68 MB

          VIDEO_TS/VTS_01_1.VOB -
886.1 MB

          VIDEO_TS/VTS_02_0.BUP -
56 KB

          VIDEO_TS/VTS_02_0.IFO -
56 KB

          VIDEO_TS/VTS_02_0.VOB -
5.54 MB

          VIDEO_TS/VTS_02_1.VOB -
956.76 MB

          VIDEO_TS/VTS_03_0.BUP -
48 KB

          VIDEO_TS/VTS_03_0.IFO -
48 KB

          VIDEO_TS/VTS_03_0.VOB -
6.79 MB

          VIDEO_TS/VTS_03_1.VOB -
781.81 MB

          VIDEO_TS/VTS_04_0.BUP -
48 KB

          VIDEO_TS/VTS_04_0.IFO -
48 KB

          VIDEO_TS/VTS_04_0.VOB -
6.15 MB

          VIDEO_TS/VTS_04_1.VOB -
780.36 MB

          VIDEO_TS/VTS_05_0.BUP -
50 KB

          VIDEO_TS/VTS_05_0.IFO -
50 KB

          VIDEO_TS/VTS_05_0.VOB -
7.02 MB

          VIDEO_TS/VTS_05_1.VOB -
848.09 MB

    Covers
          Band Of Brothers - Disc.jpg -
1.16 MB

          Band Of Brothers - Front [1].jpg -
90.21 KB

          Band Of Brothers - Front [2].jpg -
979.61 KB

          Band Of Brothers Screens.jpg -
179.17 KB



Description



===============================================================================================
MOVIE TITLE: Band Of Brothers - (Complete)
LANGUAGE: English
MOVIE SUBS: No - (subtitles if/when required)
===============================================================================================
MOVIE DESC:

This is the story of "E" Easy Company, 506th Regiment of the 101st Airborne Division from their initial training starting in 1942
to the end of World War II. They parachuted behind enemy lines in the early hours of D-Day in support of the landings at
Utah beach, participated in the liberation of Carentan and again parachuted into action during Operation Market Garden.

They also liberated a concentration camp and were the first to enter Hitler's mountain retreat in Berchtesgarten. A fascinating
tale of comradeship that is, in the end, a tale of ordinary men who did extraordinary things.
===============================================================================================
MOVIE SPECS:

GENERAL:
Complete name : Band Of Brothers - (Complete)
File size : 8.38 GB
Duration : 705 Minutes
Overall bit rate : 2 709 Kbps

VIDEO:
ID : 224 (0xE0)
Format : MPEG Video
Format version : Version 2
Format profile : [email protected]
Format settings, BVOP : Yes
Format settings, Matrix : Default
Duration : 705 Minutes
Bit rate mode : Variable
Bit rate : 2 464 Kbps
Nominal bit rate : 9 608 Kbps
Width : 720 pixels
Height : 576 pixels
Display aspect ratio : 16:9
Frame rate : 25.000 fps
Standard : PAL
Color space : YUV
Chroma subsampling : 4:2:0
Bit depth : 8 bits
Scan type : Progressive
Bits/(Pixel*Frame) : 0.238
Stream size : 931 MiB (91%)

AUDIO:
ID : 128 (0x80)
Format : AC-3
Format/Info : Audio Coding 3
Mode extension : CM (complete main)
Duration : 705 Minutes
Bit rate mode : Constant
Bit rate : 192 Kbps
Channel(s) : 2 channels
Channel positions : Front: L R
Sampling rate : 48.0 KHz
Stream size : 72.6 MiB (7%)
===============================================================================================
STREAM:

Video: MPEG2 Video 720x576 (16:9) [Video]
Audio: Dolby AC3 48000Hz stereo [AC3]
===============================================================================================
TOTAL FILE SIZE:

8.38 GB (9,005,696,938 bytes)
===============================================================================================
TORRENT CONTENTS:

52 Files in 8 Folders (VIDEO_TS & AUDIO_TS)
===============================================================================================
IMDB LINK:

http://www.imdb.com/title/tt0185906/
===============================================================================================

Related torrents

Torrent NameAddedSizeSeedLeechHealth
1 Year+ - in TV shows6.84 GB05
7 months ago - in TV shows9.65 GB00
1 Year+ - in TV shows5.3 GB10219
1 Year+ - in TV shows6.84 GB00
Verified torrent
1 Year+ - in TV shows48.15 GB925
1 Year+ - in TV shows6.83 GB00

Comments (0 Comments)




Please login or create a FREE account to post comments

Latest Searches

| AssholeFever 16 12 10 Monique Woods Gagging And Gaping XXX 1080p MP4 KTR | Nicole A Happy Model Is A Good Model | gloriya | little step sister tease | ebony bubble booty | south park season 20 uncensored | sierra proof | awkward s05e08 720p hdtv x264 fleet rartv | VSDC Free Video Editor 5 7 | Time Of Our Lives by Ne Yo Pitbull |