Quick Browse
Movies
TV shows
Music
Games
Applications
Anime
Other
Facebook
Advertising

Friends
Torrent Download
Movie4u
1337x.to
Torrent Downloads




Bang Ok Dangerous - 2000 - Thailand Movie - TVRip - WS - XViD-Greekadiko.biz


    Seeders : 0      Leechers : 0

Trackers List

Tracker NameLast CheckStatusSeedersLeechers




Torrent File Content (7 files)


Bangk ╬čk Dangerous
     Bangk Ok Dangerous.avi -
750.09 MB

     poster.png -
289.25 KB

     Bang Ok Dangerous.jpg -
25.81 KB

     Bang Ok Dangerous_3.jpg -
21.41 KB

     Bang Ok Dangerous_1.jpg -
18.82 KB

     Bang Ok Dangerous_2.jpg -
17.29 KB

     Bang Ok Dangerous_4.jpg -
17.2 KB



Description



General
Complete name : Bangk Ok Dangerous.avi
Format : AVI
Format/Info : Audio Video Interleave
File size : 750 MiB
Duration : 1h 41mn
Overall bit rate : 1 032 Kbps
Writing application : VirtualDubMod 1.5.4.1 (build 2178/release)
Writing library : VirtualDubMod build 2178/release

Video
ID : 0
Format : MPEG-4 Visual
Format profile : Streaming [email protected]
Format settings, BVOP : Yes
Format settings, QPel : No
Format settings, GMC : No warppoints
Format settings, Matrix : Default (H.263)
Muxing mode : Packed bitstream
Codec ID : XVID
Codec ID/Hint : XviD
Duration : 1h 41mn
Bit rate : 831 Kbps
Width : 720 pixels
Height : 400 pixels
Display aspect ratio : 16/9
Frame rate : 29.970 fps
Resolution : 24 bits
Colorimetry : 4:2:0
Scan type : Progressive
Bits/(Pixel*Frame) : 0.096
Stream size : 604 MiB (81%)
Writing library : XviD 1.2.1 (UTC 2008-12-04)

Audio
ID : 1
Format : MPEG Audio
Format version : Version 1
Format profile : Layer 3
Codec ID : 55
Codec ID/Hint : MP3
Duration : 1h 41mn
Bit rate mode : Constant
Bit rate : 192 Kbps
Channel(s) : 2 channels
Sampling rate : 44.1 KHz
Resolution : 16 bits
Stream size : 140 MiB (19%)
Alignment : Split accross interleaves
Interleave, duration : 67 ms (2.00 video frames)
Interleave, preload duration : 500 ms


Related torrents

Torrent NameAddedSizeSeedLeechHealth
1 Year+ - in Movies850.37 MB00
1 Year+ - in Movies843.13 MB01
1 Year+ - in Movies710.01 MB00
1 Year+ - in Movies676.86 MB10
1 Year+ - in Movies657.64 MB10

Comments (0 Comments)




Please login or create a FREE account to post comments

Latest Searches

| amorosa the revenge | Sociology A Global Perspective 9th Edition by Joan Ferrante Dr Soc | Rae sremmurd Nicki Minaj remix | Ligabue Made in Italy | A Gooey Mess | filmconvert premiere crack | me jesus | party bathroom | Westworld S01E11 | i m still chris brown dj khaled |