Quick Browse
Movies
TV shows
Music
Games
Applications
Anime
Other
Facebook
Advertising

Friends
Torrent Download
Movie4u
1337x.to
Torrent Downloads




Basta.Che.Funzioni.2009.iTALiAN.MD.DVDRip.XviD-SiLENT.[ultimafrontiera]


    Seeders : 10      Leechers : 3

Trackers List

Tracker NameLast CheckStatusSeedersLeechers




Torrent File Content (1 file)


     Basta.Che.Funzioni.2009.iTALiAN.MD.DVDRip.XviD-SiLENT.avi -
689.62 MB



Description



http://i35.tinypic.com/23vevc8.jpg


http://i33.tinypic.com/auch6s.jpg


http://i36.tinypic.com/2wlzn9f.jpg


Titolo originale: Whatever Works
Nazione: U.S.A., Francia
Anno: 2009
Genere: Commedia
Durata: 92
Regia: Woody Allen
Produzione: Gravier Productions, Perdido Productions, Wild Bunch



http://i34.tinypic.com/301n9ec.jpg


[color=#00FF00]Larry David, Adam Brooks, Lyle Kanouse, Patricia Clarkson, Evan Rachel Wood, Michael McKean, Clifford Lee Dickson, Yolonda Ross, Carolyn McCormick, Henry Cavill, Ed Begley Jr., Steve Antonucci, John Gallagher Jr., Nicole Patrick[/color]

http://i33.tinypic.com/2ldeeyr.jpg


[color=orange]Woody Allen ritorna a New York per la sua nuova commedia che vede uno scienziato sessantenne in crisi depressiva e decide di abbandonare la sua vita agiata per vivere alla giornata. Durante questa sua fase di vita, incontra una giovane del sud che lo farà innamorare...[/color]

http://i38.tinypic.com/2ihuvd2.jpg


[color=red][b] Woody Allen ritorna nella sua New York dopo quattro film (e i prossimi due saranno ancora in Europa) e sceglie come protagonista Larry David, un suo amico, oltretutto già presente con due camei in "Radio days" e nell’episodio "Edipo relitto" del corale "New York stories". Forse dieci anni fa questo ruolo lo avrebbe interpretato lui: un intellettuale di origini ebree, vittima di attacchi di panico, sarcastico e irresistibilmente attraente per le donne. Anche per una ragazzina ignorante conosciuta per caso e che diventa, nonostante la gran differenza d’età, sua moglie.
Che ad Allen piaccia parlare con il proprio pubblico è cosa nota. I suoi monologhi rivolti allo spettatore sono diventati celebri, una vera e propria nota autoriale. Con "Basta che funzioni" questo approccio diventa più sfacciato, e non solo nel modo (si parla direttamente di "pubblico dall’altra parte"). Stavolta ad Allen piace anche indagare (per quanto lui ogni volta dichiara che le storie che racconta non abbiano nulla a che fare con la sua vita sentimentale) su un tipo di relazione amorosa che lui conosce bene: quella tra un uomo ormai più che adulto e una ragazza meno che trentenne (come non pensare a lui e sua moglie Soon-Yi?). Anche se sembra che il film fu scritto una prima volta verso la fine degli anni ’70, sarebbe stupido dire che non ci siano cenni biografici.
Così come era accaduto fortemente in "Vicky Cristina Barcelona" con il personaggio di Scarlett Johansson stimolata artisticamente dai talenti della coppia Bardem-Cruz (ma anche "Anything else" conteneva, in piccolo, questo concetto), anche stavolta al centro del racconto vi è il percorso formativo di una ragazza. O meglio, di un’intera famiglia, scopriremo poi. Stare vicino a menti colte fa bene, fa crescere così come vivere nella Grande Mela. Allen non ci va giù con le mezze misure. Per quanto con sarcasmo, quel modo di intendere la vita di provincia e la piccola mentalità come delle note di merito così come qualsiasi idea di un’esistenza di un dio vengono fatti a brandelli dalle battute al vetriolo dei vari personaggi. Ricorre la concezione della transitorietà dei rapporti, l’amore è vero, ma non per questo infinito, così come, seppure senza enfasi, emerge quell’aria di casa (amata) che Woody Allen fa trasparire quando gira a New York. Su tutto però ritorna quella capacità del cineasta di far ridere parlando di qualsiasi cosa. In America "Basta che funzioni" non è stato amato. Bah. Per una volta, da italiani, possiamo andare fieri del fatto di essere uno dei suoi pubblici più affezionati: ameremo senz’altro anche questa sua nuova opera.

La frase: "L’universo si esaurisce. Perché noi non dovremmo?".
Andrea D'Addio



http://i34.tinypic.com/1z1495e.jpg


[code]Format : AVI
Format/Info : Audio Video Interleave
File size : 690 MiB
Duration : 1h 31mn
Overall bit rate : 1 052 Kbps

Video
ID : 0
Format : MPEG-4 Visual
Format profile : [email protected]
Format settings, BVOP : Yes
Format settings, QPel : No
Format settings, GMC : No warppoints
Format settings, Matrix : Default (MPEG)
Codec ID : XVID
Codec ID/Hint : XviD
Duration : 1h 31mn
Bit rate : 919 Kbps
Width : 624 pixels
Height : 352 pixels
Display aspect ratio : 16:9
Frame rate : 23.976 fps
Resolution : 24 bits
Colorimetry : 4:2:0
Scan type : Progressive
Bits/(Pixel*Frame) : 0.175
Stream size : 603 MiB (87%)
Writing library : XviD 1.2.1 (UTC 2008-12-04)

Audio
ID : 1
Format : MPEG Audio
Format version : Version 1
Format profile : Layer 3
Codec ID : 55
Codec ID/Hint : MP3
Duration : 1h 31mn
Bit rate mode : Variable
Bit rate : 120 Kbps
Nominal bit rate : 128 Kbps
Channel(s) : 2 channels
Sampling rate : 48.0 KHz
Resolution : 16 bits
Stream size : 78.4 MiB (11%)
Alignment : Aligned on interleaves
Interleave, duration : 24 ms (0.58 video frame)[/code]


http://i38.tinypic.com/34hbbjr.jpg


http://www.youtube.com/watch?v=mr3MYlGZKHM

[color=#ff3a00][size=18pt]Qualità audio 6,5
Qualità video 8,5 [/size] [/color]

Related torrents

Torrent NameAddedSizeSeedLeechHealth
1 Year+ - in Movies689.62 MB00
1 Year+ - in Movies689.62 MB17452
1 Year+ - in Other689.62 MB2014
1 Year+ - in Movies1.37 GB00
1 Year+ - in Movies695.41 MB00

Comments (0 Comments)




Please login or create a FREE account to post comments

Latest Searches

| kmplayer 4 1 0 | dp cindy loarn | paula shy erotic | bonanza face of fear 13th season bradford dillman | Sindrive The Big Tits of 3 | nina elle pornstar platinum | wants stay | czechcasting dominika 7262 25 06 2016 full hd | MyFriendsHotGirl NaughtyAmerica Jessa Rhodes Johnny Castle | Girl Asleep 2015 |