Quick Browse
Movies
TV shows
Music
Games
Applications
Anime
Other
Facebook
Advertising

Friends
Torrent Download
Movie4u
1337x.to
Torrent Downloads




Verified torrent Batman [XviD - Eng Ita Ac3 - Sub Eng Ita Fra Esp Por] [TNT Village]


    Seeders : 17      Leechers : 11

Trackers List

Tracker NameLast CheckStatusSeedersLeechers




Torrent File Content (6 files)


B4TM4N
     B4TM4N.avi -
1.37 GB

     B4TM4N_English.srt -
66.04 KB

     B4TM4N_Espanol.srt -
133.24 KB

     B4TM4N_Francais.srt -
138.21 KB

     B4TM4N_Italiano.srt -
131.21 KB

     B4TM4N_Portuguese.srt -
129.65 KB



Description



http://img576.imageshack.us/img576/6619/batman1989md6.jpg


Details

Language: English | Italiano
Subtitle: English | Italiano | Francais | Espanol | Portugues
Release Date: 1989
Runtime: 121 min
Color (Technicolor)
Aspect Ratio: 1.85 : 1
Director: Tim Burton
Writers: Bob Kane (Batman characters), Sam Hamm (story),

Cast

Michael Keaton - Batman / Bruce Wayne
Jack Nicholson - Joker / Jack Napier
Kim Basinger - Vicki Vale
Robert Wuhl - Alexander Knox
Pat Hingle - Commissioner James Gordon
Billy Dee Williams - Harvey Dent
Michael Gough - Alfred Pennyworth


Storyline

Gotham City: dark, dangerous, 'protected' only by a mostly corrupt police department. Despite the best efforts of D.A. Harvey Dent and police commissioner Jim Gordon, the city becomes increasingly unsafe...until a Dark Knight arises. We all know criminals are a superstitious, cowardly lot...so his disguise must be able to strike terror into their hearts. He becomes a bat. Enter Vicky Vale, a prize-winning photo journalist who wants to uncover the secret of the mysterious "bat-man". And enter Jack Napier, one-time enforcer for Boss Grissom, horribly disfigured after a firefight in a chemical factory...who, devoid of the last vestiges of sanity, seizes control of Gotham's underworld as the psychotic, unpredictable Clown Prince of Crime...the Joker. Gotham's only hope, it seems, lies in this dark, brooding vigilante. And just how does billionaire playboy Bruce Wayne fit into all of this?


General
Complete name : K:\Download Completi\B4TM4N\B4TM4N.avi
Format : AVI
Format/Info : Audio Video Interleave
File size : 1.37 GiB
Duration : 2h 1mn
Overall bit rate : 1 624 Kbps
Writing application : VirtualDubMod 1.4.13
Writing library : VirtualDub build 14328/release

Video
ID : 0
Format : MPEG-4 Visual
Format profile : Advanced [email protected]
Format settings, BVOP : Yes
Format settings, QPel : No
Format settings, GMC : No warppoints
Format settings, Matrix : Default (H.263)
Codec ID : XVID
Codec ID/Hint : XviD
Duration : 2h 1mn
Bit rate : 1 225 Kbps
Width : 592 pixels
Height : 320 pixels
Display aspect ratio : 1.850
Frame rate : 25.000 fps
Color space : YUV
Chroma subsampling : 4:2:0
Bit depth : 8 bits
Scan type : Progressive
Bits/(Pixel*Frame) : 0.259
Stream size : 1.04 GiB (75%)
Writing library : XviD 1.2.1 (UTC 2008-12-04)

Audio #1
ID : 1
Format : AC-3
Format/Info : Audio Coding 3
Format profile : Dolby Digital
Mode extension : CM (complete main)
Codec ID : 2000
Duration : 2h 1mn
Bit rate mode : Constant
Bit rate : 192 Kbps
Channel(s) : 2 channels
Channel positions : Front: L R
Sampling rate : 48.0 KHz
Bit depth : 16 bits
Video delay : 17ms
Stream size : 166 MiB (12%)
Alignment : Split accross interleaves
Interleave, duration : 40 ms (1.00 video frame)
Interleave, preload duration : 500 ms

Audio #2
ID : 2
Format : AC-3
Format/Info : Audio Coding 3
Mode extension : CM (complete main)
Codec ID : 2000
Duration : 2h 1mn
Bit rate mode : Constant
Bit rate : 192 Kbps
Channel(s) : 2 channels
Channel positions : Front: L R
Sampling rate : 48.0 KHz
Bit depth : 16 bits
Video delay : 17ms
Stream size : 166 MiB (12%)
Alignment : Split accross interleaves
Interleave, duration : 40 ms (1.00 video frame)
Interleave, preload duration : 500 ms

http://img204.imageshack.us/img204/1204/screenshotj.gif


http://img695.imageshack.us/img695/7893/vlcsnap2010102911h03m20.png


http://img51.imageshack.us/img51/9164/vlcsnap2010102911h02m45.png


Related torrents

Torrent NameAddedSizeSeedLeechHealth
Verified torrent
1 Year+ - in Movies1.35 GB03
1 Year+ - in Movies1.67 GB00
1 Year+ - in Movies1.37 GB110
Verified torrent
1 Year+ - in Movies5.01 GB1247
Verified torrent
1 Year+ - in Movies1.86 GB1863

Comments (0 Comments)




Please login or create a FREE account to post comments

Latest Searches

| paradise 1997 wicked | HorribleSubs Aldnoah Zero 09 1080p | Corinthians hino | sins porn | almost human s01e13 straw man hdtv 720p 1280x720 x264 ac3 5 1 mp4 | agastha christie | Halloween artist | X Men Days of Future Past 2014 dts 1080p | Jewels Vega Ryan Ryans Meditation Problems | Cky Bam Margera |