Quick Browse
Movies
TV shows
Music
Games
Applications
Anime
Other

Donate and Support

Friends
Torrents.me
Torrent Download
Free Movies
1337x
RARBG
Torrent Downloads

Verified torrent Baton Baton Mein (1979) Hindi DvD - Rip - Xvid - E - Sub - { MT }


    Seeders : 2      Leechers : 10
Hash :26F6FC1D208FD5664C4F2C76753A383F0E67D13C
Added :1 Year+ by mastitorrentsVerified torrent uploader in Movies
Size :1.36 GB
Stream :Watch Full Movies Online @ Movie4u
Share :









Warning! Do not Download Torrents Without a VPN!
Your IP Address is .   And Location is
Your Internet Provider and Government can track your torrent Activity!  Hide your IP ADDRESS with a VPN!
We Strongly Recommend Using SpyOFF Torrent VPN to Anonymize your Torrenting. It's FREE For 15 Days!

Note :

Please Update (Trackers Info) Before Downloading Torrents to See Updated Seeders And Leechers for Batter Download Speed.

Trackers List

Tracker NameLast CheckStatusSeedersLeechers




Torrent File Content (2 files)


Baton Baton Mein (1979) DvD - Rip - Xvid - E - Sub - { MT }
     Baton Baton Mein (1979) DvD - Rip - Xvid - E - Sub - { MT }.avi -
1.36 GB

     Baton Baton Mein (1979) DvD - Rip - Xvid - E - Sub - { MT }.srt -
92.08 KB



Description



[color=red][font=Georgia]Ripper : Rahul
Complete name : Baton Baton Mein (1979)
Format : AVI
Format/Info : Audio Video Interleave
File size : 1.36 GiB
Duration : 1h 52mn
Overall bit rate : 1 726 Kbps
Writing application : VirtualDubMod 1.5.10.2 (build 2540/release)
Writing library : VirtualDubMod build 2540/release

Video
ID : 0
Format : MPEG-4 Visual
Format profile : Advanced [email protected]
Format settings, BVOP : Yes
Format settings, QPel : No
Format settings, GMC : No warppoints
Format settings, Matrix : Default (H.263)
Muxing mode : Packed bitstream
Codec ID : XVID
Codec ID/Hint : XviD
Duration : 1h 52mn
Bit rate : 1 330 Kbps
Width : 640 pixels
Height : 480 pixels
Display aspect ratio : 4:3
Frame rate : 29.970 fps
Color space : YUV
Chroma subsampling : 4:2:0
Bit depth : 8 bits
Scan type : Progressive
Bits/(Pixel*Frame) : 0.144
Stream size : 1.05 GiB (77%)
Writing library : XviD 1.1.2 (UTC 2006-11-01)

Audio
ID : 1
Format : AC-3
Format/Info : Audio Coding 3
Mode extension : CM (complete main)
Codec ID : 2000
Duration : 1h 52mn
Bit rate mode : Constant
Bit rate : 384 Kbps
Channel(s) : 6 channels
Channel positions : Front: L C R, Side: L R, LFE
Sampling rate : 48.0 KHz
Bit depth : 16 bits
Stream size : 310 MiB (22%)
Alignment : Split accross interleaves
Interleave, duration : 33 ms (1.00 video frame)
Interleave, preload duration : 500 ms
[/font][/color]

http://img805.imageshack.us/img805/8735/111a.jpg

http://img227.imageshack.us/img227/2196/211vnb.jpg

http://img844.imageshack.us/img844/8397/78350941.jpg

http://img94.imageshack.us/img94/7259/36258660.jpg

http://img8.imageshack.us/img8/7138/41819030.jpg

http://img175.imageshack.us/img175/2345/87157591.jpg


Related torrents

Torrent NameAddedSizeSeedLeechHealth
1 Year+ - in Movies685.73 MB12
1 Year+ - in Movies1.12 GB02
1 Year+ - in Movies3.52 GB00
1 Year+ - in Movies967.16 MB00
Verified torrent
1 Year+ - in Movies1.11 GB00

Comments (0 Comments)




Please login or create a FREE account to post comments

Latest Searches

| blacklist season 1 | are we feed | how to fix a laptop | bone thugs n harmony disc 2 | Arcade Fire Everything Now 2017 FLAC CD | suns home | babes com malkova | Mainstream Outlawz X Clan | sex candle | Weeb Quan Zhi Gao Shou The King s Avatar |