Quick Browse
Movies
TV shows
Music
Games
Applications
Anime
Other
Facebook
Advertising

Friends
Torrent Download
Movie4u
1337x.to
Torrent Downloads




Verified torrent Battleground 2012 DVDRip XviD-SPRiNTER


    Seeders : 1      Leechers : 0
Hash :54689B472EEB8848E100420A44114CFDE71F383E
Added :1 Year+ by chrisowenloveVerified torrent uploader in Movies
Size :711.7 MB
Stream :WATCH ONLINE @ Movie4u


Battleground 2012 DVDRip XviD-SPRiNTER
Free and Fast Download with Usenet 300GB+ free







Trackers List

Tracker NameLast CheckStatusSeedersLeechers




Torrent File Content (7 files)


Battleground.2012.DVDRip.XviD-SPRiNTER
    /sprinter-battleground.nfo
          /sprinter-battleground.nfo -
7.01 KB

    /sprinter-battleground_poster.jpg
          /sprinter-battleground_poster.jpg -
391.11 KB

    /sprinter-battleground.jpg
          /sprinter-battleground.jpg -
5.08 KB

    /sprinter-battleground.avi
          /sprinter-battleground.avi -
700.82 MB

    /Torrent Downloaded From ExtraTorrent.com.txt
          /Torrent Downloaded From ExtraTorrent.com.txt -
353 bytes

    /Torrent downloaded from AhaShare.com.txt
          /Torrent downloaded from AhaShare.com.txt -
59 bytes

    /Sample
          sprinter-battleground-sample.avi -
10.48 MB



Description



http://imagestorage.org/images/88242263764005220306.jpeg


ARTiCHOKE

SPRiNTER proudly presents

Battleground.2012.DVDRip.XviD-SPRiNTER

Date: 2011.12
http://www.imdb.com/title/tt1754506/

Release notes

Enjoy!

News

We are currently looking for:
Looking for talented xvid-encoders with time & addiction
Suppliers who can provide pre-retail or retail dvds with decent upload!
50Mbit+ dump providers with 1TB+ free space

[email protected]

Greetings

NTX FiCO HNR CiNEFiLE AEN HUMANiSM TASTE 0MNiDVD

Details

Format: AVI
Format/Info: Audio Video Interleave
File size: 701 MiB
Duration: 1h 25mn
Overall bit rate mode: Variable
Overall bit rate: 1 147 Kbps
Writing application: VirtualDubMod 1.5.10.2 (build 2540/release)
Writing library: VirtualDubMod build 2540/release

Video
ID: 0
Format: MPEG-4 Visual
Format profile: Advanced [email protected]
Format settings, BVOP: 2
Format settings, QPel: No
Format settings, GMC: No warppoints
Format settings, Matrix: Default (H.263)
Codec ID: XVID
Codec ID/Hint: XviD
Duration: 1h 25mn
Bit rate: 995 Kbps
Width: 608 pixels
Height: 256 pixels
Display aspect ratio: 2.40:1
Frame rate: 25.000 fps
Color space: YUV
Chroma subsampling: 4:2:0
Bit depth: 8 bits
Scan type: Progressive
Compression mode: Lossy
Bits/(Pixel*Frame): 0.256
Stream size: 608 MiB (87%)
Writing library: XviD 61

Audio
ID: 1
Format: MPEG Audio
Format version: Version 1
Format profile: Layer 3
Mode: Joint stereo
Codec ID: 55
Codec ID/Hint: MP3
Duration: 1h 25mn
Bit rate mode: Variable
Bit rate: 140 Kbps
Minimum bit rate: 128 Kbps
Channel(s): 2 channels
Sampling rate: 48.0 KHz
Compression mode: Lossy
Stream size: 85.3 MiB (12%)
Alignment: Aligned on interleaves
Interleave, duration: 24 ms (0.60 video frame)
Interleave, preload duration: 461 ms
Writing library: LAME3.95
Encoding settings: -m j -V 4 -q 3 -lowpass 18 --vbr-old -b 128

Related torrents

Torrent NameAddedSizeSeedLeechHealth
1 Year+ - in Movies711.7 MB29213
Verified torrent
1 Year+ - in Movies700.84 MB440334
1 Year+ - in Movies711.7 MB294
1 Year+ - in Movies700.84 MB511,376
1 Year+ - in Movies711.32 MB165

Comments (0 Comments)




Please login or create a FREE account to post comments

Latest Searches

| hotel transylvania vo | The Glenn Miller Orchester | white collar s03e10 720p hdtv x264 immerse ss | french montana all for you feat lana del rey wiz khalifa snoop dogg cdq | big round butt porn | david bowie Im afraid | Fundamentals of nursing potter perry | david bowie Im afraid of | WiBit Net Video Tutorial C Beginner CrashCourse part12 | campaig |