Quick Browse
Movies
TV shows
Music
Games
Applications
Anime
Other
Facebook
Advertising

Friends
Torrent Download
Movie4u
1337x.to
Torrent Downloads




Battles - Mirrored [Eac Flac Cue-TNTVillage]


    Seeders : 1      Leechers : 2
Hash :1C9916BD18D1955A6A869AACE9756F4CEE8DB233
Added :1 Year+ by submarcosVerified torrent uploader in Music - Music
Size :346.08 MB
Stream :WATCH ONLINE @ Movie4u


Battles - Mirrored [Eac Flac Cue-TNTVillage]
Free and Fast Download with Usenet 300GB+ free







Trackers List

Tracker NameLast CheckStatusSeedersLeechers
udp://tracker.publicbt.com:80/announce1 Year+success10
udp://tracker.istole.it:801 Year+success10
udp://tracker.openbittorrent.com:801 Year+success02




Torrent File Content (16 files)


Battles (2007) - Mirrored
     06 - Rainbow.flac -
52.87 MB

     04 - Tonto.flac -
49.93 MB

     10 - Tij.flac -
49.26 MB

     02 - Atlas.flac -
46.91 MB

     01 - Race - In.flac -
37.32 MB

     07 - Bad Trails.flac -
27.37 MB

     11 - Race - Out.flac -
22.08 MB

     03 - Ddiamondd.flac -
20.54 MB

     05 - Leyendecker.flac -
19.11 MB

     09 - Snare Hangar.flac -
14.29 MB

     08 - Prismism.flac -
5.68 MB

    cover
          front.jpg -
577.59 KB

          cd.jpg -
138.25 KB

     Battles - Mirrored.log -
11.09 KB

     Mirrored.cue -
1.6 KB

     Battles - Mirrored.m3u -
221 bytes



Description



.: Original Release:.
http://www.tntvillage.scambioetico.org/?showtopic=264905

[::Cover::]

http://img689.imageshack.us/img689/637/coverhux.jpg


Artist: Battles
Title: Mirrored
Genre: Math Rock
Year: 2007

[ :: Tracklist :: ]
01. Race: In [4:51]
02. Atlas [7:07]
03. Ddiamondd [2:34]
04. Tonto [7:43]
05. Leyendecker [2:48]
06. Rainbow [8:11]
07. Bad Trails [5:18]
08. Prismism [0:52]
09. Snare Hanger[1:59]
10. Tij [7:04]
11. Race: Out [3:30]

[ :: Technical Data :: ]
Encoder: EAC 1.02 b2 (Secure Mode,Accuraterip,Test & Copy)
Codec: Flac 1.2.1
Profile: 6

EAC LOG:


Exact Audio Copy V1.0 beta 2 from 29. April 2011

EAC extraction logfile from 15. September 2011, 20:49

Battles / Mirrored

Used drive : PIONEER DVD-RW DVR-108 Adapter: 1 ID: 0

Read mode : Secure
Utilize accurate stream : Yes
Defeat audio cache : Yes
Make use of C2 pointers : No

Read offset correction : 48
Overread into Lead-In and Lead-Out : No
Fill up missing offset samples with silence : Yes
Delete leading and trailing silent blocks : No
Null samples used in CRC calculations : Yes
Used interface : Native Win32 interface for Win NT & 2000
Gap handling : Appended to previous track

Used output format : User Defined Encoder
Selected bitrate : 768 kBit/s
Quality : High
Add ID3 tag : No
Command line compressor : C:\NoUAC\Exact Audio Copy\FLAC\FLAC.EXE
Additional command line options : -6 -V -T "ARTIST=%artist%" -T "TITLE=%title%"
-T "ALBUM=%albumtitle%" -T "DATE=%year%" -T "TRACKNUMBER=%tracknr%" -T "GENRE=%genre%"
-T "COMMENT=EAC1.0b2 Secure Mode, Test & Copy, AccurateRip, FLAC 1.2.1 -6 (by Paky)"


TOC of the extracted CD

Track | Start | Length | Start sector | End sector
---------------------------------------------------------
1 | 0:00.00 | 4:50.59 | 0 | 21808
2 | 4:50.59 | 7:07.15 | 21809 | 53848
3 | 11:57.74 | 2:33.63 | 53849 | 65386
4 | 14:31.62 | 7:43.11 | 65387 | 100122
5 | 22:14.73 | 2:48.16 | 100123 | 112738
6 | 25:03.14 | 8:11.04 | 112739 | 149567
7 | 33:14.18 | 5:18.16 | 149568 | 173433
8 | 38:32.34 | 0:52.34 | 173434 | 177367
9 | 39:24.68 | 1:58.64 | 177368 | 186281
10 | 41:23.57 | 7:03.68 | 186282 | 218074
11 | 48:27.50 | 3:29.39 | 218075 | 233788


Track 1

Filename E:\Battles (2007) - Mirrored\01 - Race - In.wav

Pre-gap length 0:00:02.00

Peak level 99.9 %
Extraction speed 1.6 X
Track quality 100.0 %
Test CRC 0FDB9949
Copy CRC 0FDB9949
Accurately ripped (confidence 4) [99AAD73F] (AR v2)
Copy OK

Track 2

Filename E:\Battles (2007) - Mirrored\02 - Atlas.wav

Pre-gap length 0:00:00.46

Peak level 99.9 %
Extraction speed 1.9 X
Track quality 100.0 %
Test CRC 0446A855
Copy CRC 0446A855
Accurately ripped (confidence 4) [C63CDF69] (AR v2)
Copy OK

Track 3

Filename E:\Battles (2007) - Mirrored\03 - Ddiamondd.wav

Pre-gap length 0:00:01.48

Peak level 99.9 %
Extraction speed 1.8 X
Track quality 100.0 %
Test CRC 67EA5D3D
Copy CRC 67EA5D3D
Accurately ripped (confidence 5) [2A4BB6F0] (AR v2)
Copy OK

Track 4

Filename E:\Battles (2007) - Mirrored\04 - Tonto.wav

Pre-gap length 0:00:00.07

Peak level 99.9 %
Extraction speed 2.1 X
Track quality 99.9 %
Test CRC 9823DFA5
Copy CRC 9823DFA5
Accurately ripped (confidence 5) [E55810BE] (AR v2)
Copy OK

Track 5

Filename E:\Battles (2007) - Mirrored\05 - Leyendecker.wav

Pre-gap length 0:00:00.33

Peak level 99.9 %
Extraction speed 2.1 X
Track quality 100.0 %
Test CRC E89B66EB
Copy CRC E89B66EB
Accurately ripped (confidence 5) [02FA89FB] (AR v2)
Copy OK

Track 6

Filename E:\Battles (2007) - Mirrored\06 - Rainbow.wav

Pre-gap length 0:00:01.74

Peak level 99.9 %
Extraction speed 2.5 X
Track quality 99.9 %
Test CRC E347DB0D
Copy CRC E347DB0D
Accurately ripped (confidence 5) [4B32BD6F] (AR v2)
Copy OK

Track 7

Filename E:\Battles (2007) - Mirrored\07 - Bad Trails.wav

Pre-gap length 0:00:00.70

Peak level 99.9 %
Extraction speed 2.7 X
Track quality 100.0 %
Test CRC 792BD7D7
Copy CRC 792BD7D7
Accurately ripped (confidence 5) [19558327] (AR v2)
Copy OK

Track 8

Filename E:\Battles (2007) - Mirrored\08 - Prismism.wav

Peak level 99.9 %
Extraction speed 1.3 X
Track quality 99.7 %
Test CRC F5A05296
Copy CRC F5A05296
Accurately ripped (confidence 5) [67844E06] (AR v2)
Copy OK

Track 9

Filename E:\Battles (2007) - Mirrored\09 - Snare Hangar.wav

Peak level 99.9 %
Extraction speed 1.9 X
Track quality 99.9 %
Test CRC 89C6DD7F
Copy CRC 89C6DD7F
Accurately ripped (confidence 5) [096853AE] (AR v2)
Copy OK

Track 10

Filename E:\Battles (2007) - Mirrored\10 - Tij.wav

Pre-gap length 0:00:01.56

Peak level 99.9 %
Extraction speed 3.0 X
Track quality 100.0 %
Test CRC D23E731E
Copy CRC D23E731E
Accurately ripped (confidence 5) [BECAE564] (AR v2)
Copy OK

Track 11

Filename E:\Battles (2007) - Mirrored\11 - Race - Out.wav

Pre-gap length 0:00:02.69

Peak level 99.9 %
Extraction speed 2.5 X
Track quality 99.9 %
Test CRC 4738DA16
Copy CRC 4738DA16
Accurately ripped (confidence 5) [36059620] (AR v2)
Copy OK


All tracks accurately ripped

No errors occurred

End of status report

==== Log checksum D73AB6C95CFAD4DF29CDE7C8E8852DE2822E1B93DC45ED539419D24794F81011 ====

Related torrents

Torrent NameAddedSizeSeedLeechHealth
Verified torrent
1 Year+ - in Music389.13 MB713
Verified torrent
1 Year+ - in Music414.64 MB32
Verified torrent
1 Year+ - in Music367.87 MB118
Verified torrent
1 Year+ - in Music265.29 MB39
Verified torrent
1 Year+ - in Music266.11 MB10

Comments (0 Comments)




Please login or create a FREE account to post comments

Latest Searches

| Encore 55 Ai Uehara | Bubble Guppies Season 3 4 25 6 Episodes Part 1 of 2 | stellar phoenix mac 7 1 0 | CHRISTIE FRENCH | jason part 4 | 5inco | Chris Brown f Busta rhymes | Ashley kat | Yes season 5 episode 9 | Bubble Guppies Season 3 4 25 6 Episodes Part 2 of 1 |