Quick Browse
Movies
TV shows
Music
Games
Applications
Anime
Other

Donate and Support

Friends
Torrents.me
Torrent Download
Free Movies
1337x
RARBG
Torrent Downloads

Verified torrent Beastly 2011 BRRip 720p H264-MXMG


    Seeders : 68      Leechers : 64
Hash :28B2AAF541A0FA4AB4D7D69467A05534CE699F5F
Added :1 Year+ by MXMGVerified torrent uploader in Movies
Size :1.47 GB
Stream :Watch Full Movies Online @ Movie4u
Share :


Beastly 2011 BRRip 720p H264-MXMG
Anonymous and free Direct Download







Warning! Do not Download Torrents Without a VPN!
Your IP Address is .   And Location is
Your Internet Provider and Government can track your torrent Activity!  Hide your IP ADDRESS with a VPN!
We Strongly Recommend Using SpyOFF Torrent VPN to Anonymize your Torrenting. It's FREE For 15 Days!

Note :

Please Update (Trackers Info) Before Downloading Torrents to See Updated Seeders And Leechers for Batter Download Speed.

Trackers List

Tracker NameLast CheckStatusSeedersLeechers




Torrent File Content (8 files)


Beastly 2011 BRRip 720p H264-MXMG
     Beastly.mp4 -
1.46 GB

     Beastly-sample.m4v -
16.37 MB

     Beastly[subs]Vietnamese.srt -
135.21 KB

     Beastly[subs]Indonesian.srt -
64.11 KB

     Beastly[subs]English.srt -
62.09 KB

     Beastly[subs]Arabic.srt -
49.91 KB

     Torrent downloaded from Demonoid.me.txt -
46 bytes

     Torrent downloaded from Silvertorrents.me.txt -
41 bytes



Description



http://img88.imageshack.us/img88/9595/123dt.png



[code]iMDB................................: http://www.imdb.com/title/tt1152398/


Plot :
A modern-day take on the "Beauty and the Beast" tale where a New York teen is transformed into a hideous monster in order to find true love.


Format : MPEG-4
Format profile : Base Media
File size : 1.46 GiB
Duration : 1h 26mn
Overall bit rate : 2 419 Kbps
Encoded date : UTC 2011-06-16 11:07:39

Video
Format : AVC
Format/Info : Advanced Video Codec
Format profile : [email protected]
Format settings, CABAC : Yes
Format settings, ReFrames : 4 frames
Codec ID/Info : Advanced Video Coding
Duration : 1h 26mn
Bit rate mode : Variable
Bit rate : 2 163 Kbps
Maximum bit rate : 11.8 Mbps
Width : 1 280 pixels
Height : 544 pixels
Display aspect ratio : 2.35:1
Frame rate mode : Constant
Frame rate : 23.976 fps
Bits/(Pixel*Frame) : 0.130
Stream size : 1.30 GiB (89%)
Writing library : x264 core 115 r1995 c1e60b9


Audio
Format : AAC
Format/Info : Advanced Audio Codec
Format profile : LC
Codec ID : 40
Duration : 1h 26mn
Bit rate mode : Variable
Bit rate : 254 Kbps
Maximum bit rate : 400 Kbps
Channel(s) : 6 channels
Channel positions : Front: L C R, Side: L R, LFE
Sampling rate : 48.0 KHz
Stream size : 156 MiB (10%)
Language : English


[/code]


http://img193.imageshack.us/img193/541/beastly2011bluray720pdt.png

http://img860.imageshack.us/img860/541/beastly2011bluray720pdt.png

http://img221.imageshack.us/img221/4368/023xhqv.png




[code]Trackers :
http://inferno.demonoid.me:3393/announce
http://fr33dom.h33t.com:3310/announce
http://nemesis.1337x.org/announce
http://genesis.1337x.org:1337/announce
[/code]


[code]
Feel free to visit and select your range and suite of seedboxes and hosting plans.
Recomended by MXMG as these servers seed for your Dowloading @ 25MB/s
http://www.chociz.com/

^COMPATiBLE MODES.......: XBOX-360/PSP/PS3/WDTV

FiND THE GENUiNE MXMG RELEASES @ TORRENTSTATE
HiGHEST QUALiTY iN COMFORTABLE SiZE ...
[/code]

Related torrents

Torrent NameAddedSizeSeedLeechHealth
1 Year+ - in Movies2.16 GB129
1 Year+ - in Movies2.15 GB156
1 Year+ - in Movies2.06 GB237
1 Year+ - in Movies2.04 GB17
1 Year+ - in Movies2.05 GB00

Comments (0 Comments)




Please login or create a FREE account to post comments

Latest Searches

| Engineering An Empire Britain Blood and Steel | arrow s03e05 720p x264 dimension | tremor vegas mike | masterchef new s | MPC Sampling | Lana Rhoades Markus Dupree | Train Of Life 1998 BluRay 720p DTS x264 CHD | the rain music | scania | return to roots |