Quick Browse
Movies
TV shows
Music
Games
Applications
Anime
Other
Facebook
Advertising

Friends
Torrent Download
Movie4u
1337x.to
Torrent Downloads




Verified torrent Beauty and the Beast 3D 2012


    Seeders : 0      Leechers : 0
Hash :7F2FE9AE5E2C177A9CC29C23DDD106B435A2208F
Added :1 Year+ by robyrsVerified torrent uploader in Movies
Size :811.98 MB
Stream :WATCH ONLINE @ Movie4u


Beauty and the Beast 3D 2012
Free and Fast Download with Usenet 300GB+ free







Trackers List

Tracker NameLast CheckStatusSeedersLeechers




Torrent File Content (11 files)


Beauty and the Beast 3D 2012
     Beauty and the Beast 3D 2012.avi -
811.77 MB

     Subs ENG.srt -
80.95 KB

     Subs Norwegian.srt -
64.92 KB

     Subs Rus.srt -
64.92 KB

     darkcore.me.txt -
96 bytes

     sceneunderground.org.txt -
77 bytes

     Torrent downloaded from AhaShare.com.txt -
59 bytes

     www.Quickertech.org.txt -
51 bytes

     Torrent downloaded from Demonoid.me.txt -
46 bytes

     att-networks.com.txt -
39 bytes

     Tracked by desidhamal.com.txt -
25 bytes



Description



Beauty and the Beast 3D 2012

Language : English

Format : AVI

Format/Info : Audio Video Interleave

Format profile : OpenDML

Duration : 1h 38mn

Overall bit rate : 1 882 Kbps

http://www.imdb.com/title/tt0101414/

Video

ID : 0

Format : MPEG-4 Visual

Format profile : [email protected]

Format settings, BVOP : No

Format settings, QPel : No

Format settings, GMC : No warppoints

Format settings, Matrix : Default (H.263)

Codec ID : XVID

Codec ID/Hint : XviD

Duration : 1h 38mn

Bit rate : 475 Kbps

Width : 720 pixels

Height : 480 pixels

Display aspect ratio : 3:2

Frame rate : 29.970 fps

Original frame rate : 29.000 fps

Standard : NTSC

Color space : YUV

Chroma subsampling : 4:2:0

Bit depth : 8 bits

Scan type : Progressive

Compression mode : Lossy

Bits/(Pixel*Frame) : 0.046

Stream size : 335 MiB (25%)

Writing library : XviD 1.2.1 (UTC 2008-12-04)



Audio

ID : 1

Format : MPEG Audio

Format version : Version 1

Format profile : Layer 3

Mode : Joint stereo

Mode extension : MS Stereo

Codec ID : 55

Codec ID/Hint : MP3

Duration : 1h 38mn

Bit rate mode : Constant

Bit rate : 128 Kbps

Channel(s) : 2 channels

Sampling rate : 44.1 KHz

Compression mode : Lossy

Stream size : 19.7 MiB (1%)

Alignment : Aligned on interleaves

Interleave, duration : 32 ms (0.95 video frame)

Writing library : LAME3.98.2



Release notes...



Another quality release from IFLIX

More to come very soon!

Related torrents

Torrent NameAddedSizeSeedLeechHealth
Verified torrent
1 Year+ - in Movies808.68 MB10
Verified torrent
1 Year+ - in Movies828.86 MB10
Verified torrent
1 Year+ - in Movies787.55 MB10
Verified torrent
1 Year+ - in Movies773.04 MB10
Verified torrent
1 Year+ - in Movies1.22 GB11

Comments (0 Comments)




Please login or create a FREE account to post comments

Latest Searches

| Swept Away 2002 WEB DL DD5 1 H264 FGT mkv | motley crue the end | O T coco i m in love with the coco | And Then The Album | love young thug | Samurai Assassin 1965 NORDiC DVDRip x264 AAC Devil mkv | zoes | shaved hairy pussy | bill jeans | danielsen slav |