Quick Browse
Movies
TV shows
Music
Games
Applications
Anime
Other
Facebook
Advertising

Friends
Torrent Download
Movie4u
1337x.to
Torrent Downloads




Verified torrent Bebel Gilberto - Momento[Eac Flac Cue](TntVillage)


    Seeders : 18      Leechers : 13
Hash :083F601DEBB0A81A81B5555B157F62ED843D38B7
Added :1 Year+ by leoneneroVerified torrent uploader in Music - Music
Size :245.34 MB
Stream :WATCH ONLINE @ Movie4u


Bebel Gilberto - Momento[Eac Flac Cue](TntVillage)
Free and Fast Download with Usenet 300GB+ free







Trackers List

Tracker NameLast CheckStatusSeedersLeechers




Torrent File Content (15 files)


Bebel Gilberto - Momento
     00._%BebelGilberto%_-_%Momento%.nfo -
2.08 KB

     01 - Momento.flac -
31.92 MB

     02 - Bring back The Love (Feat. Brazilian Girls).flac -
27.12 MB

     03 - Close To You.flac -
17.52 MB

     04 - Os Novos Yorkinos.flac -
21.51 MB

     05 - Azul.flac -
17.2 MB

     06 - Caçada.flac -
28.21 MB

     07 - Night And Day.flac -
26.49 MB

     08 - Tranquilo (Feat. Orquestra Imperial).flac -
25.87 MB

     09 - Um Segundo.flac -
14.94 MB

     10 - Cadê Você.flac -
21.67 MB

     11 - Words.flac -
12.87 MB

     Bebel Gilberto - Momento.cue -
1.47 KB

     Bebel Gilberto - Momento.log -
12.85 KB

     Bebel Gilberto - Momento.m3u -
294 bytes



Description




http://img198.imageshack.us/img198/2434/progettocover.jpg


http://img109.imageshack.us/img109/3789/bebelgilbertomomentofro.jpg


http://img84.imageshack.us/img84/6017/bebelgilbertomomentotra.jpg


http://img585.imageshack.us/img585/2885/bebelgilbertomomentocd.gif


Title: Bebel Gilberto - Momento
Label: Sony/BMG
Format: cd
Country: Brazil
Released: 2007
Genre: Mpb
Style: Pop
Source: CD
Playing Time: 42.16
Total Size: 240,65 MB
Band: Bebel Gilberto (vocals, background vocals);
Sabina Sciubba (vocals, charango, background vocals);
Thalma de Freitas (vocals, background vocals);
Didi Gutman (guitar, keyboards, programming, background vocals);
Celso Fonseca (acoustic guitar, steel guitar);
Guy Sigsworth (acoustic guitar, programming);
Masa Shimizu, Pedro Baby (acoustic guitar);
Nelson Jacobina, Bartolo, Pedro Sá (electric guitar);
Ian Burdge (cello);
Jorge Continentino (flute, baritone saxophone);
Felipe Pinaud (flute);
Paulo Levi (alto flute, tenor saxophone);
Zé Luis (alto flute);
Bidu Cordeiro (trombone, bass trombone);
Marlon Sette, Carlos Darci (trombone);
Rubinho Jacobina (electric piano);
Mauro Refosco (vibraphone, snare drum, congas, talking drum, agogo, cymbals, pandeiro, shaker, shekere, tambourine, triangle, caxixi, percussion, programming, background vocals);
Berna Ceppas (vibraphone, guiro, sampler);
Jorge Helder (electric bass);
Aaron Johnston, Domenico Lancelotti (drums); Moreno Veloso (congas);
Cezar Farias "Bodao" (bongos);
Stephane San Juan (cowbells, maracas, timbales);
Sean McGhee (programming); Rodrigo Amarante, Béco (background vocals)


http://img98.imageshack.us/img98/9113/progettotracklist.jpg

1. Momento 5:14
2. Bring Back The Love 4:28 (com Brazilian Girls)
3. Close To You 3:18
4. Os Novos Yorkinos 3:38
5. Azul 3:10
6. Caçada 4:32
7. Night And Day 4:53
8. Tranquilo 4:02 (com Orchestra Imperial)
9. Um Segundo 3:08
10. Cade Voce 3:29
11. Words 2:30


http://img210.imageshack.us/img210/734/progettorecensione.jpg

‘Momento’, il suo terzo lavoro, continua a mescolare con oculatezza il samba, la bossa nova, il pop e l’elettronica, ottenendo un risultato decisamente originale. La voce di Bebel risuona morbida e confidenziale. Induce l’ascoltatore a lasciarsi abbandonare, a dimenticare lo stress quotidiano. A poco a poco riesce ad ipnotizzare, a provocare un effetto di trance, grazie anche alla ripetitività ciclica dei brani, intelligentemente di breve durata, ma che potrebbero continuare ad libitum in una sorta di musicoterapica.

Oltre alle doti interpretative, Bebel si propone sempre di più come cantautrice: 8 degli 11 brani sono infatti di sua composizione. La formazione varia ad ogni traccia, anche se il chitarrista giapponese Shimizu Masa ed il percussionista brasiliano Mauro Refosco sembrano costituire la base melodico-ritmica su cui Bebel costruisce la propria vocalità. Non ci sono brani qualitativamente poco convincenti in scaletta, anche se le nostre preferenze vanno a ‘Um segundo’, ‘Night and Day’ e ‘Words’.
http://img713.imageshack.us/img713/7143/progettodatitecnici.jpg


Exact Audio Copy V1.0 beta 3 from 29. August 2011

EAC extraction logfile from 3. January 2012, 18:14

Bebel Gilberto / Momento

Used drive : HL-DT-STDVDRAM GSA-T40N Adapter: 0 ID: 0

Read mode : Secure
Utilize accurate stream : Yes
Defeat audio cache : Yes
Make use of C2 pointers : No

Read offset correction : 667
Overread into Lead-In and Lead-Out : No
Fill up missing offset samples with silence : Yes
Delete leading and trailing silent blocks : No
Null samples used in CRC calculations : Yes
Used interface : Native Win32 interface for Win NT & 2000
Gap handling : Appended to previous track

Used output format : User Defined Encoder
Selected bitrate : 896 kBit/s
Quality : High
Add ID3 tag : No
Command line compressor : C:\Program Files\Exact Audio Copy\FLAC\FLAC.EXE
Additional command line options : -8 -V -T "ARTIST=%BebelGilberto%" -T "TITLE=%Momento%" -T "ALBUM=%Momento%" -T "DATE=%2007%" -T "TRACKNUMBER=%11%" -T "GENRE=%Mpb%" -T "COMMENT=%comment%" -T "BAND=%albuminterpret%" -T "ALBUMARTIST=%BebelGilberto%" -T "COMPOSER=%BebelGilberto%

TOC of the extracted CD

Track | Start | Length | Start sector | End sector
---------------------------------------------------------
1 | 0:00.00 | 5:14.55 | 0 | 23604
2 | 5:14.55 | 4:27.02 | 23605 | 43631
3 | 9:41.57 | 3:18.58 | 43632 | 58539
4 | 13:00.40 | 3:39.51 | 58540 | 75015
5 | 16:40.16 | 3:11.33 | 75016 | 89373
6 | 19:51.49 | 4:32.67 | 89374 | 109840
7 | 24:24.41 | 4:55.19 | 109841 | 131984
8 | 29:19.60 | 4:04.27 | 131985 | 150311
9 | 33:24.12 | 3:10.29 | 150312 | 164590
10 | 36:34.41 | 3:30.46 | 164591 | 180386
11 | 40:05.12 | 2:30.19 | 180387 | 191655


Track 1

Filename F:\Nuova cartella\Bebel Gilberto - Momento\01 - Momento.flac

Pre-gap length 0:00:02.00

Peak level 89.9 %
Extraction speed 2.0 X
Track quality 99.9 %
Test CRC 062594DD
Copy CRC 062594DD
AccurateRip returned [C86FE686] (AR v2)
Copy OK

Track 2

Filename F:\Nuova cartella\Bebel Gilberto - Momento\02 - Bring back The Love (Feat. Brazilian Girls).flac

Pre-gap length 0:00:00.51

Peak level 94.1 %
Extraction speed 2.4 X
Track quality 100.0 %
Test CRC E6B5CD8C
Copy CRC E6B5CD8C
AccurateRip returned [494A0938] (AR v2)
Copy OK

Track 3

Filename F:\Nuova cartella\Bebel Gilberto - Momento\03 - Close To You.flac

Peak level 92.8 %
Extraction speed 2.4 X
Track quality 100.0 %
Test CRC 987848F8
Copy CRC 987848F8
AccurateRip returned [7DA3F20E] (AR v2)
Copy OK

Track 4

Filename F:\Nuova cartella\Bebel Gilberto - Momento\04 - Os Novos Yorkinos.flac

Pre-gap length 0:00:00.49

Peak level 93.1 %
Extraction speed 2.2 X
Track quality 100.0 %
Test CRC 8AC2A486
Copy CRC 8AC2A486
AccurateRip returned [7FE6307D] (AR v2)
Copy OK

Track 5

Filename F:\Nuova cartella\Bebel Gilberto - Momento\05 - Azul.flac

Pre-gap length 0:00:00.64

Peak level 91.2 %
Extraction speed 2.2 X
Track quality 100.0 %
Test CRC 86899F5F
Copy CRC 86899F5F
AccurateRip returned [73A0CA76] (AR v2)
Copy OK

Track 6

Filename F:\Nuova cartella\Bebel Gilberto - Momento\06 - Caçada.flac

Pre-gap length 0:00:00.31

Peak level 93.9 %
Extraction speed 2.7 X
Track quality 99.9 %
Test CRC 59CBD89A
Copy CRC 59CBD89A
AccurateRip returned [E7468868] (AR v2)
Copy OK

Track 7

Filename F:\Nuova cartella\Bebel Gilberto - Momento\07 - Night And Day.flac

Pre-gap length 0:00:00.40

Peak level 92.9 %
Extraction speed 3.4 X
Track quality 100.0 %
Test CRC D59C8B50
Copy CRC D59C8B50
AccurateRip returned [A8081CA8] (AR v2)
Copy OK

Track 8

Filename F:\Nuova cartella\Bebel Gilberto - Momento\08 - Tranquilo (Feat. Orquestra Imperial).flac

Pre-gap length 0:00:01.28

Peak level 93.3 %
Extraction speed 3.1 X
Track quality 99.9 %
Test CRC 9C7F89DF
Copy CRC 9C7F89DF
AccurateRip returned [78448509] (AR v2)
Copy OK

Track 9

Filename F:\Nuova cartella\Bebel Gilberto - Momento\09 - Um Segundo.flac

Pre-gap length 0:00:01.55

Peak level 93.5 %
Extraction speed 3.3 X
Track quality 100.0 %
Test CRC 98F6A6D2
Copy CRC 98F6A6D2
AccurateRip returned [1E51F7D4] (AR v2)
Copy OK

Track 10

Filename F:\Nuova cartella\Bebel Gilberto - Momento\10 - Cadê Você.flac

Pre-gap length 0:00:00.70

Peak level 93.0 %
Extraction speed 3.7 X
Track quality 100.0 %
Test CRC 3F8C26D3
Copy CRC 3F8C26D3
AccurateRip returned [B3CAEEB2] (AR v2)
Copy OK

Track 11

Filename F:\Nuova cartella\Bebel Gilberto - Momento\11 - Words.flac

Pre-gap length 0:00:00.41

Peak level 90.1 %
Extraction speed 3.5 X
Track quality 100.0 %
Test CRC A3D9D1D9
Copy CRC A3D9D1D9
AccurateRip returned [4BD6DEB2] (AR v2)
Copy OK


No tracks could be verified as accurate
You may have a different pressing from the one(s) in the database

No errors occurred

End of status report

==== Log checksum D62807C5CB2C5F78FE6B473230EAA5F1475F1E42B6D11C8212B86C48775665D9 ====

24 su 24:80/90 Kb/s

Related torrents

Torrent NameAddedSizeSeedLeechHealth
Verified torrent
1 Year+ - in Music290.59 MB2019
Verified torrent
1 Year+ - in Music250.95 MB24
Verified torrent
1 Year+ - in Music269.44 MB329
Verified torrent
1 Year+ - in Music406.55 MB1413
Verified torrent
1 Year+ - in Music263.72 MB1714

Comments (0 Comments)




Please login or create a FREE account to post comments

Latest Searches

| the missing serie 1 | Roanoke s06e01 | My Sister Is Stacked XXX DVDRip x264 STARLETSN1C | Shooter S01E01 HDTV x264 FLEET 720p FLEET | Oldboy Bluray 1080p DTS HD x264 Grym | Bea Millers | wwe here comes the pain collectors edition | Caribbeancom 120216 316 | Grimm s 1 4 | AAP Fuckin Problems ft Drake 2 chainz Kendrick Lamar |