Quick Browse
Movies
TV shows
Music
Games
Applications
Anime
Other
Facebook
Advertising

Friends
Torrent Download
Movie4u
1337x.to
Torrent Downloads




Verified torrent Beethoven's Christmas Adventure 2011 DvDRiP XviD - VISUALiSE


    Seeders : 0      Leechers : 0

Trackers List

Tracker NameLast CheckStatusSeedersLeechers




Torrent File Content (7 files)


Beethoven's Christmas Adventure 2011 DvDRiP XviD - VISUALiSE
     Beethoven's Christmas Adventure 2011 DvDRiP XviD - VISUALiSE.avi -
1.11 GB

     Beethoven's Christmas Adventure 2011 DvDRiP XviD - VISUALiSE.nfo -
2.91 KB

     HDSceneRG.txt -
115 bytes

     Torrent downloaded from Demonoid.me.txt -
46 bytes

     Torrent downloaded from Suprnova.me.txt -
42 bytes

     att-networks.com.txt -
39 bytes

     sceneunderground.org.txt -
77 bytes



Description



http://img715.imageshack.us/img715/3941/posterqu.jpg

[code]
Title: Beethoven's Christmas Adventure 2011 DvDRiP XviD - VISUALiSE
Format: Xvid
Language: English
Subtitles: No
Imdb: http://www.imdb.com/title/tt1855134/

Plot:
A Christmas elf accidentally takes off in Santa's sleigh,
crash lands in a small town, and loses the magic toy bag.
Beethoven must rescue the elf, recover the bag from greedy
crooks, and return the sleigh to Santa in time to save
Christmas

Sources:
Video: Retail DVDR - Many Thanks German Pal
Audio: Retail DVDR - Many Thanks German Pal

Release Notes:
Beethoven's Christmas Adventure 2011 DvDRiP XviD - VISUALiSE
Straight forward rip from the dvdr ran
a few filters etc etc

enjoy.

Info:
Video
ID : 0
Format : MPEG-4 Visual
Codec ID : XVID
Codec ID/Hint : XviD
Duration : 1h 25mn
Bit rate : 90.0 Kbps
Width : 720 pixels
Height : 402 pixels
Display aspect ratio : 16:9
Frame rate : 29.970 fps
Color space : YUV
Chroma subsampling : 4:2:0
Compression mode : Lossy
Bits/(Pixel*Frame) : 0.010
Stream size : 55.3 MiB (5%)

Audio
ID : 1
Format : MPEG Audio
Codec ID : 55
Codec ID/Hint : MP3
Duration : 1h 25mn
Bit rate : 128 Kbps
Channel(s) : 2 channels
Sampling rate : 48.0 KHz
Compression mode : Lossy
Stream size : 78.6 MiB (7%)
Alignment : Aligned on interleaves

[/code]
Screens:
http://img444.imageshack.us/img444/9483/67616463.png

http://img511.imageshack.us/img511/6563/70014421.png

http://img51.imageshack.us/img51/4020/55141615.png

http://img560.imageshack.us/img560/586/24892125.png

http://img210.imageshack.us/img210/4237/14085803.png

Related torrents

Torrent NameAddedSizeSeedLeechHealth
1 Year+ - in Movies1.11 GB00
1 Year+ - in Movies1.11 GB144
1 Year+ - in Movies1.11 GB1191
1 Year+ - in Movies1.11 GB00
1 Year+ - in Movies1.11 GB155

Comments (0 Comments)




Please login or create a FREE account to post comments

Latest Searches

| The Black Room 1935 | swap x265 | where are u now justin bieber ft skrillex diplo | Penthouse Hotel DAmor | POVD Piper Perri hevc x265 | nhl 2013 ecqf g5 09 may ny islanders v pit penguins 540p | best american essays 2016 | The I Don t Cares Wild Stab 2016 | Raul Julia | jenny i |