Quick Browse
Movies
TV shows
Music
Games
Applications
Anime
Other
Facebook
Friends
Torrent Download
Movie4u
1337x.to
Torrent Downloads

Verified torrent Beneath Hill 60 [DVD5] [ENG] [AC3] [Hannspree]


    Seeders : 2      Leechers : 10

Trackers List

Tracker NameLast CheckStatusSeedersLeechers




Torrent File Content (13 files)


Beneath Hill 60
    Beneath Hill 60 [DVD]
          VIDEO_TS/VIDEO_TS.BUP -
12 KB

          VIDEO_TS/VIDEO_TS.IFO -
12 KB

          VIDEO_TS/VIDEO_TS.VOB -
58 KB

          VIDEO_TS/VTS_01_0.BUP -
78 KB

          VIDEO_TS/VTS_01_0.IFO -
78 KB

          VIDEO_TS/VTS_01_0.VOB -
58 KB

          VIDEO_TS/VTS_01_1.VOB -
1023.97 MB

          VIDEO_TS/VTS_01_2.VOB -
788.22 MB

    Beneath Hill 60 [Images]
          Beneath Hill 60 [Cover].jpg -
1.8 MB

          Beneath Hill 60 [Disc].jpg -
74.53 KB

          Beneath Hill 60 [Screens].jpg -
130.69 KB

     Beneath Hill 60.NFO -
3.65 KB

     Torrent downloaded from H33T.org.txt -
43 bytes



Description



=====================================================================================
[ Another free, high quality, ready to burn DVD I will be adding new torrents on a daily basis - Remember to seed ]
=====================================================================================
MOVIE TITLE: Beneath Hill 60
LANGUAGE: English
MOVIE SUBS: No
BURN TESTED: Yes
FORMAT: Pal
GENRE: Drama | History | War
RUNTIME: 122 Minutes
YEAR: 2010
IMDB LINK: http://www.imdb.com/title/tt1418646/
=====================================================================================
MOVIE DESC:

The extraordinary true story of Oliver Woodward. It's 1916 and Woodward must tear himself from his new young love to go to the mud and carnage of the Western Front. Deep beneath the German lines. Woodward and his secret platoon of Australian tunnelers fight to defend a leaking, labyrinthine tunnel system packed with enough high explosives to change the course of the War.
=====================================================================================
MOVIE SPECS:

GENERAL:
Complete name : Beneath Hill 60 [DVD5]
Format : MPEG-PS
File size : 1.77 GB
Duration : 122 Minutes
Overall bit rate : 2 103 Kbps

VIDEO:
ID : 224 (0xE0)
Format : MPEG Video
Format version : Version 2
Format profile : [email protected]
Format settings, BVOP : Yes
Format settings, Matrix : Default
Duration : 122 Minutes
Bit rate mode : Variable
Bit rate : 1 869 Kbps
Nominal bit rate : 9 608 Kbps
Width : 720 pixels
Height : 576 pixels
Display aspect ratio : 16:9
Frame rate : 25.000 fps
Standard : PAL
Color space : YUV
Chroma subsampling : 4:2:0
Bit depth : 8 bits
Scan type : Progressive
Bits/(Pixel*Frame) : 0.180
Stream size : 910 MiB (89%)

AUDIO:
ID : 128 (0x80)
Format : AC-3
Format/Info : Audio Coding 3
Mode extension : CM (complete main)
Duration : 122 Minutes
Bit rate mode : Constant
Bit rate : 192 Kbps
Channel(s) : 2 channels
Channel positions : Front: L R
Sampling rate : 48.0 KHz
Stream size : 93.5 MiB (9%)
=====================================================================================
TRACKERS:
http://fr33dom.h33t.com:3310/announce
http://exodus.1337x.org/announce
http://tracker.ilibr.org/announce
http://tpb.tracker.prq.to/announce
http://red.tracker.prq.to/announce
http://tracker.openbittorrent.com/announce
http://gemini.tracker.prq.to/announce
http://11.rarbg.com/announce
=====================================================================================
[FOOT NOTE]
If you are happy with this download, it would be nice to hear your views or comments that you might have. Enjoy
=====================================================================================
Screen Shot Of Beneath Hill 60
=====================================================================================
http://leetpic.com/images/beneathhil.jpg

=====================================================================================
Beneath Hill 60 [DVD5] [ENG] [AC3] [Hannspree]
=====================================================================================

Related torrents

Torrent NameAddedSizeSeedLeechHealth
1 Year+ - in Movies9.29 GB1344
Verified torrent
1 Year+ - in Movies1.68 GB42
Verified torrent
1 Year+ - in Movies1.63 GB03
Verified torrent
1 Year+ - in Movies2.14 GB28
Verified torrent
1 Year+ - in Movies869.42 MB55

Comments (0 Comments)




Please login or create a FREE account to post comments

Latest Searches

| gta | Wolfhound 2006 UNCUT 720p BluRay x264 Eng Subs Dual Audio Hindi | NANOS | Mccarthy bar journey | best of 6 rock | 21naturals 14 10 26 ria rodrigez spicy hot 1080p mp4 ktr | monroe marco | Deadgirl 2008 DVDRip | prestineedge | the remix masters |