Quick Browse
Movies
TV shows
Music
Games
Applications
Anime
Other
Facebook
Advertising

Friends
Torrent Download
Movie4u
1337x.to
Torrent Downloads




Beyond.Sherwood.Forest.2009.Xvid.TA.torrent_[trackeraccess_org]


    Seeders : 2      Leechers : 0

Trackers List

Tracker NameLast CheckStatusSeedersLeechers




Torrent File Content (25 files)


Beyond.Sherwood.Forest.2009.Xvid.TA
     Beyond.Sherwood.Forest.2009.Xvid.TA.part13.rar -
13.97 MB

     Beyond.Sherwood.Forest.2009.Xvid.TA.part03.rar -
13.97 MB

     Beyond.Sherwood.Forest.2009.Xvid.TA.part04.rar -
13.97 MB

     Beyond.Sherwood.Forest.2009.Xvid.TA.part01.rar -
13.97 MB

     Beyond.Sherwood.Forest.2009.Xvid.TA.part05.rar -
13.97 MB

     Beyond.Sherwood.Forest.2009.Xvid.TA.part06.rar -
13.97 MB

     Beyond.Sherwood.Forest.2009.Xvid.TA.part07.rar -
13.97 MB

     Beyond.Sherwood.Forest.2009.Xvid.TA.part08.rar -
13.97 MB

     Beyond.Sherwood.Forest.2009.Xvid.TA.part09.rar -
13.97 MB

     Beyond.Sherwood.Forest.2009.Xvid.TA.part10.rar -
13.97 MB

     Beyond.Sherwood.Forest.2009.Xvid.TA.part11.rar -
13.97 MB

     Beyond.Sherwood.Forest.2009.Xvid.TA.part12.rar -
13.97 MB

     Beyond.Sherwood.Forest.2009.Xvid.TA.part02.rar -
13.97 MB

     Beyond.Sherwood.Forest.2009.Xvid.TA.part14.rar -
13.97 MB

     Beyond.Sherwood.Forest.2009.Xvid.TA.part15.rar -
13.97 MB

     Beyond.Sherwood.Forest.2009.Xvid.TA.part16.rar -
13.97 MB

     Beyond.Sherwood.Forest.2009.Xvid.TA.part17.rar -
13.97 MB

     Beyond.Sherwood.Forest.2009.Xvid.TA.part18.rar -
13.97 MB

     Beyond.Sherwood.Forest.2009.Xvid.TA.part19.rar -
13.97 MB

     Beyond.Sherwood.Forest.2009.Xvid.TA.part20.rar -
13.97 MB

     Beyond.Sherwood.Forest.2009.Xvid.TA.part21.rar -
13.97 MB

     Beyond.Sherwood.Forest.2009.Xvid.TA.part22.rar -
13.97 MB

     Beyond.Sherwood.Forest.2009.Xvid.TA.part23.rar -
13.97 MB

     Beyond.Sherwood.Forest.2009.Xvid.TA.part24.rar -
2.88 MB

     Beyond.Sherwood.Forest.2009.Xvid.TA.nfo -
2.47 KB



Description



Beyond.Sherwood.Forest.2009.Xvid.TA.avi

http://www.imdb.com/title/tt1331323/

General
Complete name : Beyond.Sherwood.Forest.2009.Xvid.TA.avi
Format : AVI
Format/Info : Audio Video Interleave
File size : 333 MiB
Duration : 1h 27mn
Overall bit rate : 532 Kbps
Writing application : MEncoder SVN-r29319-snapshot-4.1.2
Writing library : VirtualDub build 30091/release

Video
ID : 0
Format : MPEG-4 Visual
Format profile : [email protected]
Format settings, BVOP : Yes
Format settings, QPel : No
Format settings, GMC : No warppoints
Format settings, Matrix : Default (H.263)
Muxing mode : Packed bitstream
Codec ID : XVID
Codec ID/Hint : XviD
Duration : 1h 27mn
Bit rate : 435 Kbps
Width : 630 pixels
Height : 324 pixels
Display aspect ratio : 1.944
Frame rate : 29.970 fps
Resolution : 24 bits
Colorimetry : 4:2:0
Scan type : Progressive
Bits/(Pixel*Frame) : 0.071
Stream size : 273 MiB (82%)
Writing library : XviD 1.2.1 (UTC 2008-12-04)

Audio
ID : 1
Format : MPEG Audio
Format version : Version 1
Format profile : Layer 3
Codec ID : 55
Codec ID/Hint : MP3
Duration : 1h 27mn
Bit rate mode : Variable
Bit rate : 82.8 Kbps
Channel(s) : 2 channels
Sampling rate : 44.1 KHz
Resolution : 16 bits
Stream size : 51.8 MiB (16%)
Alignment : Aligned on interleaves
Interleave, duration : 26 ms (0.78 video frame)
Interleave, preload duration : 491 ms

Screens

http://i46.tinypic.com/2vv3qr8.jpg

http://i50.tinypic.com/35aommh.jpg

http://i47.tinypic.com/wquid0.jpg

http://i50.tinypic.com/eqatrr.jpg


Enjoy,
TA rg

Related torrents

Torrent NameAddedSizeSeedLeechHealth
1 Year+ - in Movies784.1 MB2227
1 Year+ - in Movies832.83 MB00
1 Year+ - in Movies1.65 GB01
1 Year+ - in Movies1.17 GB00
1 Year+ - in Other1.78 GB68

Comments (0 Comments)




Please login or create a FREE account to post comments

Latest Searches

| mary poppins 4 | principles of clinical research | Lfs live for speed | westworld s01 720p | Best of Black 1 | xxx 1992 dvd | Placebo A Place for Us to Dream 20 Years Of Placebo 2016 FLAC | beavis and butthead Season 720p | les bien aims | introduction to data structures algorithms |