Quick Browse
Movies
TV shows
Music
Games
Applications
Anime
Other
Facebook
Advertising

Friends
Torrent Download
Movie4u
1337x.to
Torrent Downloads




Beyond a Reasonable Doubt (2009) (MPEG-4)(IPONE)(NL SUBS) Lions-Team


    Seeders : 5      Leechers : 1

Trackers List

Tracker NameLast CheckStatusSeedersLeechers




Torrent File Content (5 files)


Beyond a Reasonable Doubt (2009) (MPEG-4)(IPONE)(NL SUBS) Lions-Team
    INFO 2Lions-Team
          logo 2Lions.jpg -
314.99 KB

          Beyond a Reasonable Doubt (2009).jpg -
23.49 KB

          Beyond a Reasonable Doubt (2009) (MPEG-4)(IPONE)(NL SUBS) Lions-Team.txt -
4.08 KB

          Torrents aan geboden door _2lions.ons-forum.nl.txt -
583 bytes

    MOVIE
          Beyond a Reasonable Doubt (2009).mp4 -
1.2 GB



Description



Beyond a Reasonable Doubt (2009) (MPEG-4)(IPONE)(NL SUBS) Lions-Team

http://img81.imageshack.us/img81/5585/beyondareasonabledoubt2.jpg


Verenigde Staten
Drama / Mystery
105 minuten


geregisseerd door Peter Hyams
met Jesse Metcalfe, Michael Douglas en Amber Tamblyn


Om de relativiteit van het rechtsapparaat aan te tonen, beschuldigt een journalist zichzelf van een misdaad. Hij fabriceert daar toe allerhande bewijzen. Zijn toekomstige schoonvader is de enige die beschikt over de tegenbewijzen, maar als die omkomt in een verkeersongeval wordt hij ter dood veroordeeld.


English

High profile lawyer, Martin Hunter has an impeccable record putting criminals behind bars and is a shoo-in for governor in the upcoming election. But when ambitious rookie journalist, C.J. Nicholas begins investigating Hunter for tampering with evidence to secure his convictions, the district attorney's perfect record is up for scrutiny. Commencing a risky game of cat and mouse with Hunter, C.J. frames himself as a murder suspect to catch the corrupt D.A. in the act. Romantically involved with C.J. but unaware of his assignment, assistant D.A. Ella Crystal becomes caught between her boss's political ambitions and C.J.'s dangerous expose. As mounting evidence stacks up against both men, Ella's own life becomes threatened when she discovers incriminating proof that puts the fate of both C.J's innocence and Hunter's reputation in her hands.





Stripped: Junk Cells, Intros, Warnings, All Extras, Unused cells menu, Unused buttons, Useless Stuff, Director's Comment 2.0, Delete obsolete titlesets

Vertaling: Clovis, bedankt voor deze goede vertaling.
Bewerking DVD: United CustomNl ReleaseS

Enjoy


Spotinformatie
Categorie : Beeld
Formaat : MPEG-4
SOURCE = Beyond A Reasonable Doubt LiMiTED DVDR-BOW

Ondertitels : Nederlands (hardcoded)

Format : MPEG-4
Format profile : Base Media
Codec ID : isom
File size : 1.20 GiB
Duration : 1h 45mn
Overall bit rate : 1 633 Kbps


Video
ID : 1
Format : MPEG-4 Visual
Format profile : [email protected]
Format settings, BVOP : No
Format settings, QPel : No
Format settings, GMC : No warppoints
Format settings, Matrix : Default (H.263)
Codec ID : 20
Duration : 1h 45mn
Bit rate mode : Variable
Bit rate : 1 500 Kbps
Width : 720 pixels
Height : 406 pixels
Display aspect ratio : 16/9
Frame rate mode : Constant
Frame rate : 23.976 fps
Resolution : 24 bits
Colorimetry : 4:2:0
Scan type : Progressive
Bits/(Pixel*Frame) : 0.214
Stream size : 1.10 GiB (92%)
Writing library : Lavc51.40.4


Audio
ID : 2
Format : AAC
Format/Info : Advanced Audio Codec
Format version : Version 4
Format profile : LC
Format settings, SBR : No
Codec ID : 40
Duration : 1h 45mn
Bit rate mode : Variable
Bit rate : 128 Kbps
Channel(s) : 2 channels
Channel positions : L R
Sampling rate : 48.0 KHz
Resolution : 16 bits
Stream size : 96.4 MiB (8%)



Genre : Drama
Mysterie

Weblink : http://www.moviemeter.nl/film/53874
Weblink : http://www.imdb.com/title/tt1183251


*****************************************


Brought to you by
Pioen
http://i226.photobucket.com/albums/dd118/FloraKing/Avator/bloemenmeisje.gif

2Lions Team



http://i845.photobucket.com/albums/ab16/hortencia9/_96637_four_weddings_and_a_funeral_.jpg



2Lions-Team for all your Dutch MOVIES and more

*****************************************

DON T HIT AND RUN Niet gelijk afhaken als de film binnen is blijf seeden.

Related torrents

Torrent NameAddedSizeSeedLeechHealth
1 Year+ - in Movies1.21 GB10
1 Year+ - in Movies1.13 GB13
1 Year+ - in Movies1.09 GB2215
1 Year+ - in Movies1.11 GB2333
1 Year+ - in Movies1.08 GB517

Comments (0 Comments)




Please login or create a FREE account to post comments

Latest Searches

| Dr Steven Greer Cosmic Consciousness Meditation | 2 Mujer Mujer | i stole her virginity | g king rock star | The Vampire Diaries 2009 S08E06 HDTV 720p | s04 vostfr | a boogie da boogie | Magnificent Seven 2016 1080p BluRay | Bangbros Alison Tyler Alison Tyler gets a Big Bonus at her New Job | cum huge tits |