Quick Browse
Movies
TV shows
Music
Games
Applications
Anime
Other
Facebook
Advertising

Friends
Torrent Download
Movie4u
1337x.to
Torrent Downloads




Bhindi Bazaar [Hindi 2011] SCAM RIP Xvid [email protected]


    Seeders : 46      Leechers : 119

Trackers List

Tracker NameLast CheckStatusSeedersLeechers




Torrent File Content (4 files)


Bhindi Bazaar [Hindi 2011] SCAM RIP TDM -=MTR=- mastitorrents
     Bhindi Bazaar [Hindi 2011] SCAM RIP TDM -=MTR=- mastitorrents.avi -
471.26 MB

     Sample.avi -
25.73 MB

     (www.mastitorrents.com).txt -
604 bytes

     -=MTR=- [Masti Torrents Releasers].txt -
213 bytes



Description



http://savesnap.com/images/1xmx.jpg







description:

[quote]Bhindi Bazaar Inc

Language: Hindi

Critic Rating: (2/5)

Release Year: 2011

Cast: Kay Kay Menon, Prashant Narayan, Piyush Mishra, Pawan Malhotra, Shilpa Shukla, Deepti Naval, Shwetabh Varma, Vedita gautam, Caterina Lopez, Gautam Sharma, Shweta Verma,Vedita Pratap Singh.

Producer: Karana Arora

Director: Ankush Bhatt

Music Director: Sandeep-Surya



Synopsis

A realistic gripping account of politics set among the dark underbelly of Mumbai pickpockets in the infamous area of "Bhindi Baazaar"....

Like every other commercial organization here too are employees and their designations. They too have field work, administration structure and skill-set, alongside they also have business rivalry; this is a company called Bhin...




Format : AVI
Format/Info : Audio Video Interleave
File size : 471 MiB
Duration : 1h 27mn
Overall bit rate : 756 Kbps
Writing application : Lavf52.39.1
Writing library : VirtualDub build 32842/release

Video
ID : 0
Format : MPEG-4 Visual
Format profile : Advanced [email protected]
Format settings, BVOP : 2
Format settings, QPel : No
Format settings, GMC : No warppoints
Format settings, Matrix : Default (H.263)
Muxing mode : Packed bitstream
Codec ID : XVID
Codec ID/Hint : XviD
Duration : 1h 27mn
Bit rate : 679 Kbps
Width : 620 pixels
Height : 270 pixels
Display aspect ratio : 2.25:1
Frame rate : 25.000 fps
Color space : YUV
Chroma subsampling : 4:2:0
Bit depth : 8 bits
Scan type : Progressive
Compression mode : Lossy
Bits/(Pixel*Frame) : 0.162
Stream size : 423 MiB (90%)
Writing library : XviD 63

Audio
ID : 1
Format : MPEG Audio
Format version : Version 1
Format profile : Layer 3
Mode : Joint stereo
Mode extension : MS Stereo
Codec ID : 55
Codec ID/Hint : MP3
Duration : 1h 27mn
Bit rate mode : Constant
Bit rate : 64.0 Kbps
Channel(s) : 2 channels
Sampling rate : 48.0 KHz
Compression mode : Lossy
Stream size : 39.9 MiB (8%)
Alignment : Aligned on interleaves
Interleave, duration : 24 ms (0.60 video frame)
Interleave, preload duration : 504 ms

[/quote]



Screens/Covers:

http://bollywoodreleases.info/images/22321225712874224263.png

http://bollywoodreleases.info/images/60324022409556472303.png

http://bollywoodreleases.info/images/18991454443757695478.png

http://bollywoodreleases.info/images/05573520308899339590.png

http://bollywoodreleases.info/images/33462465909828876135.png


Related torrents

Torrent NameAddedSizeSeedLeechHealth
1 Year+ - in Movies499.15 MB24151
1 Year+ - in Movies697.4 MB34602
1 Year+ - in Movies686.82 MB164
1 Year+ - in Movies568.72 MB3651,647
1 Year+ - in Movies688.56 MB116

Comments (0 Comments)




Please login or create a FREE account to post comments

Latest Searches

| Rollin Tumblin | babysiters club | Garik and Katarinka | Game Of Thrones S01E07 FRENCH LD HDTV XviD MiND | Sweet Sweet Scott | Gojira LEnfant Sauvage | vicky 10 | J Balvin J Balvin Safari | over Tim McGraw | meek mill lol durk |