Quick Browse
Movies
TV shows
Music
Games
Applications
Anime
Other

Advertising

Friends
Torrents.me
Torrent Download
Free Movies
1337x
RARBG
Torrent Downloads

Verified torrent Big Boi ft Yelawolf - You Aint No DJ [KingPinVideos]


    Seeders : 0      Leechers : 0

Hash :BF1DE577A2535FDB65231E9B645F61549E0FDB13
Added :1 Year+ by KingPinVerified torrent uploader in Music - Music Videos
Size :95.54 MB
Stream :Watch Online Full Movie @ Movie4u
Share :








Warning! Do not Download Torrents Without a VPN!
Your IP Address is .   And Location is
Your Internet Provider and Government can track your torrent Activity!  Hide your IP ADDRESS with a VPN!
We Strongly Recommend Using SpyOFF Torrent VPN to Anonymize your Torrenting. It's FREE for 15 Days!

Note :

Please Update (Trackers Info) Before Downloading Torrents to See Updated Seeders And Leechers for Batter Download Speed.

Trackers List

Tracker NameLast CheckStatusSeedersLeechers
udp://tracker.coppersurfer.tk:805 months agosuccess00
udp://inferno.demonoid.com:3402/announce5 months agosuccess00
http://pow7.com/announce5 months agosuccess00
udp://ipv4.tracker.harry.lu:80/announce5 months agosuccess00
udp://9.rarbg.com:2710/announce5 months agosuccess00
http://tracker.trackerfix.com/announce5 months agosuccess00




Torrent File Content (4 files)


Big Boi ft Yelawolf - You Aint No DJ [KingPinVideos]
     Big Boi ft Yelawolf - You Aint No DJ [KingPinVideos].mpg -
95.54 MB

     Big Boi ft Yelawolf - You Aint No DJ [KingPinVideos].nfo -
2.08 KB

     Big Boi ft Yelawolf - You Aint No DJ [KingPinVideos].txt -
1.64 KB

     Torrent downloaded from Demonoid.com.txt -
47 bytes



Description



http://a.imageshack.us/img413/9633/bigboidj.png


http://a.imageshack.us/img842/1581/bigboidj2.png


[code]General
Complete name : Big Boi ft Yelawolf - You Aint No DJ [KingPinVideos].mpg
Format : MPEG-PS
File size : 95.5 MiB
Duration : 4mn 40s
Overall bit rate : 2 856 Kbps
Writing library : encoded by TMPGEnc 4.0 XPress Version. 4.7.4.299

Video
ID : 224 (0xE0)
Format : MPEG Video
Format version : Version 1
Format settings, BVOP : Yes
Format settings, Matrix : Default
Duration : 4mn 40s
Bit rate mode : Constant
Bit rate : 2 615 Kbps
Nominal bit rate : 2 700 Kbps
Width : 384 pixels
Height : 208 pixels
Display aspect ratio : 16:9
Frame rate : 29.970 fps
Resolution : 8 bits
Scan type : Progressive
Bits/(Pixel*Frame) : 1.092
Stream size : 87.5 MiB (92%)
Writing library : TMPGEnc XPress 4.7.4.299

Audio
ID : 192 (0xC0)
Format : MPEG Audio
Format version : Version 1
Format profile : Layer 2
Duration : 4mn 40s
Bit rate mode : Constant
Bit rate : 128 Kbps
Channel(s) : 2 channels
Sampling rate : 48.0 KHz
Stream size : 4.28 MiB (4%)[/code]

Related torrents

Torrent NameAddedSizeSeedLeechHealth
1 Year+ - in Music81.62 MB6613
1 Year+ - in Music3.48 MB00
1 Year+ - in Music18.28 MB121
1 Year+ - in Music12.3 MB25
1 Year+ - in Music4.44 MB34

Note :

Feel free to post any comments about this torrent, including links to Subtitle, samples, screenshots, or any other relevant information. Please Dont Download anything from Comments, And Dont Post Links to Streaming Sites like Fmovies, Xmovies8, 123Movies, GoMovies, CMovieshd, Solarmovie, Watchfree, Putlockers, GoStream, m4ufree etc.

Comments (0 Comments)




Please login or create a FREE account to post comments

Latest Searches

| AH SEX | chicano Cali | NGC zelda collection | The Freddie Mercury Story Who Wants to Live Forever 2016 | Urban Hymns Japan | Lexs Anal Champions | Resurrection album | sinistro a maldicao do lobisomem 2014 | venus lux jane marie | monkees |