Quick Browse
Movies
TV shows
Music
Games
Applications
Anime
Other
Facebook
Advertising

Friends
Torrent Download
Movie4u
1337x.to
Torrent Downloads




Verified torrent Big Boi ft Yelawolf - You Aint No DJ [KingPinVideos]


    Seeders : 2      Leechers : 3
Hash :BF1DE577A2535FDB65231E9B645F61549E0FDB13
Added :1 Year+ by KingPinVerified torrent uploader in Music - Music Videos
Size :95.54 MB
Stream :WATCH ONLINE @ Movie4u


Big Boi ft Yelawolf - You Aint No DJ [KingPinVideos]
Free and Fast Download with Usenet 300GB+ free







Trackers List

Tracker NameLast CheckStatusSeedersLeechers




Torrent File Content (4 files)


Big Boi ft Yelawolf - You Aint No DJ [KingPinVideos]
     Big Boi ft Yelawolf - You Aint No DJ [KingPinVideos].mpg -
95.54 MB

     Big Boi ft Yelawolf - You Aint No DJ [KingPinVideos].nfo -
2.08 KB

     Big Boi ft Yelawolf - You Aint No DJ [KingPinVideos].txt -
1.64 KB

     Torrent downloaded from Demonoid.com.txt -
47 bytes



Description



http://a.imageshack.us/img413/9633/bigboidj.png


http://a.imageshack.us/img842/1581/bigboidj2.png


[code]General
Complete name : Big Boi ft Yelawolf - You Aint No DJ [KingPinVideos].mpg
Format : MPEG-PS
File size : 95.5 MiB
Duration : 4mn 40s
Overall bit rate : 2 856 Kbps
Writing library : encoded by TMPGEnc 4.0 XPress Version. 4.7.4.299

Video
ID : 224 (0xE0)
Format : MPEG Video
Format version : Version 1
Format settings, BVOP : Yes
Format settings, Matrix : Default
Duration : 4mn 40s
Bit rate mode : Constant
Bit rate : 2 615 Kbps
Nominal bit rate : 2 700 Kbps
Width : 384 pixels
Height : 208 pixels
Display aspect ratio : 16:9
Frame rate : 29.970 fps
Resolution : 8 bits
Scan type : Progressive
Bits/(Pixel*Frame) : 1.092
Stream size : 87.5 MiB (92%)
Writing library : TMPGEnc XPress 4.7.4.299

Audio
ID : 192 (0xC0)
Format : MPEG Audio
Format version : Version 1
Format profile : Layer 2
Duration : 4mn 40s
Bit rate mode : Constant
Bit rate : 128 Kbps
Channel(s) : 2 channels
Sampling rate : 48.0 KHz
Stream size : 4.28 MiB (4%)[/code]

Related torrents

Torrent NameAddedSizeSeedLeechHealth
1 Year+ - in Music81.62 MB6613
1 Year+ - in Music18.28 MB121
1 Year+ - in Music3.48 MB00
1 Year+ - in Music12.3 MB25
1 Year+ - in Music4.44 MB34

Comments (0 Comments)




Please login or create a FREE account to post comments

Latest Searches

| eve series 3 | leela James for you | shield s 04 | s04 modern family | malwarebytes 3 2016 premium | Dragons Of The North XX | wicked pictures october | x265 ashley | eve season 3 | DirtyMasseur Kelsi Monroe Lily Jordan What the Client Wants the Client Gets |