Quick Browse
Movies
TV shows
Music
Games
Applications
Anime
Other
Facebook
Advertising

Friends
Torrent Download
Movie4u
1337x.to
Torrent Downloads




Bigg Boss Season 6 Episode 73 - 19th December 2012 [HimS]


    Seeders : 1      Leechers : 0
Hash :994559DBEB067BFD8E51AF55C30D4AE34A362DD3
Added :1 Year+ by HimSVerified torrent uploader in TV shows
Size :257.49 MB
Stream :WATCH ONLINE @ Movie4u


Bigg Boss Season 6 Episode 73 - 19th December 2012 [HimS]
Free and Fast Download with Usenet 300GB+ free







Trackers List

Tracker NameLast CheckStatusSeedersLeechers




Torrent File Content (1 file)


     Bigg Boss Season 6 Episode 73 - 19th December 2012.flv -
257.49 MB



Description



http://www.shotpix.com/images/05739775573049556653.png


[color=green]
Release Name : Bigg Boss Season 6 Episode 73
Episode Date : 19th December 2012


General
Format : Flash Video
File size : 257 MiB
Duration : 44mn 17s
Overall bit rate : 813 Kbps


Video
Format : AVC
Format/Info : Advanced Video Codec
Format profile : [email protected]
Format settings, CABAC : Yes
Format settings, ReFrames : 3 frames
Codec ID : 7
Duration : 44mn 17s
Bit rate : 676 Kbps
Width : 854 pixels
Height : 480 pixels
Display aspect ratio : 16:9
Frame rate mode : Constant
Frame rate : 25.000 fps
Color space : YUV
Chroma subsampling : 4:2:0
Bit depth : 8 bits
Scan type : Progressive
Bits/(Pixel*Frame) : 0.066
Stream size : 214 MiB (83%)


Audio
Format : AAC
Format/Info : Advanced Audio Codec
Format profile : LC
Codec ID : 10
Duration : 44mn 18s
Bit rate : 129 Kbps
Channel(s) : 2 channels
Channel positions : Front: L R
Sampling rate : 44.1 KHz
Compression mode : Lossy
Stream size : 40.8 MiB (16%)

~~~~~~~~~~~~~~~~~~~~~~~~~~~~~~~~~~~~~~~~~~~~~~~~~~

IMDB
http://www.imdb.com/title/tt1281973/

~~~~~~~~~~~~~~~~~~~~~~~~~~~~~~~~~~~~~~~~~~~~~~~~~~

Screenshot's

http://www.shotpix.com/images/15891292252689202052.png

http://www.shotpix.com/images/44422916783717567535.png

http://www.shotpix.com/images/72334243729588321895.png

http://www.shotpix.com/images/11144603676505387651.png

http://www.shotpix.com/images/85626146749425878180.png

http://www.shotpix.com/images/36224902193501576089.png


~~~~~~~~~~~~~~~~~~~~~~~~~~~~~~~~~~~~~~~~~~~~~~~~~~

[quote]Please Seed After Download...!![/quote]

http://kastatic.com/i2/u/2247454/tJOjTnSPmc.gif


~~~~~~~~~~~~~~~~~~~~~~~~~~~~~~~~~~~~~~~~~~~~~~~~~~
[/color]

Related torrents

Torrent NameAddedSizeSeedLeechHealth
Verified torrent
1 Year+ - in TV shows222.53 MB31
Verified torrent
1 Year+ - in TV shows286.81 MB20
Verified torrent
1 Year+ - in TV shows191.34 MB11
Verified torrent
1 Year+ - in TV shows289.37 MB1125
1 Year+ - in TV shows228.49 MB00

Comments (0 Comments)




Please login or create a FREE account to post comments

Latest Searches

| X Angels 16 12 05 Nelya 2160p MP4 KTR | cd surround | The Walking Dead The Walking Dead s07e07 | raptor hindi | Speed Violence | 080516 caribbeancom | Asshole Fever Linda Leclair | roar mp3 song | step 3 usmle pdf | jeleana marie bangbus |