Quick Browse
Movies
TV shows
Music
Games
Applications
Anime
Other

Latest Articles

Friends
Torrents.me
Torrent Download
Free Movies
1337x
RARBG
Torrent Downloads

Bigg Boss Season 6 Episode 73 - 19th December 2012 [HimS]


    Seeders : 1      Leechers : 0

Hash :994559DBEB067BFD8E51AF55C30D4AE34A362DD3
Added :1 Year+ by HimSVerified torrent uploader in TV shows
Size :257.49 MB
Stream :Watch Online Full Movie @ Movie4u
Share :








Warning! Do not Download Torrents Without a VPN!
Your IP Address is .   And Location is
Your Internet Provider and Government can track your torrent Activity!  Hide your IP ADDRESS with a VPN!
We Strongly Recommend Using SpyOFF Torrent VPN to Anonymize your Torrenting. It's FREE for 15 Days!

Note :

Please Update (Trackers Info) Before Downloading Torrents to See Updated Seeders And Leechers for Batter Download Speed.

Trackers List

Tracker NameLast CheckStatusSeedersLeechers




Torrent File Content (1 file)


     Bigg Boss Season 6 Episode 73 - 19th December 2012.flv -
257.49 MB



Description



http://www.shotpix.com/images/05739775573049556653.png


[color=green]
Release Name : Bigg Boss Season 6 Episode 73
Episode Date : 19th December 2012


General
Format : Flash Video
File size : 257 MiB
Duration : 44mn 17s
Overall bit rate : 813 Kbps


Video
Format : AVC
Format/Info : Advanced Video Codec
Format profile : [email protected]
Format settings, CABAC : Yes
Format settings, ReFrames : 3 frames
Codec ID : 7
Duration : 44mn 17s
Bit rate : 676 Kbps
Width : 854 pixels
Height : 480 pixels
Display aspect ratio : 16:9
Frame rate mode : Constant
Frame rate : 25.000 fps
Color space : YUV
Chroma subsampling : 4:2:0
Bit depth : 8 bits
Scan type : Progressive
Bits/(Pixel*Frame) : 0.066
Stream size : 214 MiB (83%)


Audio
Format : AAC
Format/Info : Advanced Audio Codec
Format profile : LC
Codec ID : 10
Duration : 44mn 18s
Bit rate : 129 Kbps
Channel(s) : 2 channels
Channel positions : Front: L R
Sampling rate : 44.1 KHz
Compression mode : Lossy
Stream size : 40.8 MiB (16%)

~~~~~~~~~~~~~~~~~~~~~~~~~~~~~~~~~~~~~~~~~~~~~~~~~~

IMDB
http://www.imdb.com/title/tt1281973/

~~~~~~~~~~~~~~~~~~~~~~~~~~~~~~~~~~~~~~~~~~~~~~~~~~

Screenshot's

http://www.shotpix.com/images/15891292252689202052.png

http://www.shotpix.com/images/44422916783717567535.png

http://www.shotpix.com/images/72334243729588321895.png

http://www.shotpix.com/images/11144603676505387651.png

http://www.shotpix.com/images/85626146749425878180.png

http://www.shotpix.com/images/36224902193501576089.png


~~~~~~~~~~~~~~~~~~~~~~~~~~~~~~~~~~~~~~~~~~~~~~~~~~

[quote]Please Seed After Download...!![/quote]

http://kastatic.com/i2/u/2247454/tJOjTnSPmc.gif


~~~~~~~~~~~~~~~~~~~~~~~~~~~~~~~~~~~~~~~~~~~~~~~~~~
[/color]

Related torrents

Torrent NameAddedSizeSeedLeechHealth
Verified torrent
1 Year+ - in TV shows222.53 MB00
Verified torrent
1 Year+ - in TV shows286.81 MB00
Verified torrent
1 Year+ - in TV shows191.34 MB00
Verified torrent
1 Year+ - in TV shows289.37 MB1125
1 Year+ - in TV shows228.49 MB00

Note :

Feel free to post any comments about this torrent, including links to Subtitle, samples, screenshots, or any other relevant information. Please Dont Download anything from Comments, And Dont Post Links to Streaming Sites like Fmovies, Xmovies8, 123Movies, GoMovies, CMovieshd, Solarmovie, Watchfree, Putlockers, GoStream, m4ufree etc.

Comments (0 Comments)




Please login or create a FREE account to post comments

Latest Searches

| mide303 | njpw world tag league finals | xxx austin | dvd9 ita Vendetta | me raja | av9898 1059 by arsenal fan | game of thrones s05e06 dd5 | colosseum Those Who Are About to Die Salute You | imtoo avi to dvd | VST Audio plugin |