Quick Browse
Movies
TV shows
Music
Games
Applications
Anime
Other

Donate and Support

Friends
Torrents.me
Torrent Download
Free Movies
1337x
RARBG
Torrent Downloads

Bigg Boss Season 6 Episode 74 - 20th December 2012 [HimS]


    Seeders : 0      Leechers : 0
Hash :FE723C0A2291F346D0B1968FCB9FDE8425567F74
Added :1 Year+ by HimSVerified torrent uploader in TV shows
Size :228.49 MB
Stream :Watch Full Movies Online @ Movie4u
Share :


Bigg Boss Season 6 Episode 74 - 20th December 2012 [HimS]
Anonymous and Direct Download 300GB+ free







Warning! Do not Download Torrents Without a VPN!
Your IP Address is .   And Location is
Your Internet Provider and Government can track your torrent Activity!  Hide your IP ADDRESS with a VPN!
We Strongly Recommend Using SpyOFF Torrent VPN to Anonymize your Torrenting. It's FREE For 15 Days!

Note :

Please Update (Trackers Info) Before Downloading Torrents to See Updated Seeders And Leechers for Batter Download Speed.

Trackers List

Tracker NameLast CheckStatusSeedersLeechers




Torrent File Content (1 file)


     Bigg Boss Season 6 Episode 74 - 20th December 2012.flv -
228.49 MB



Description



http://www.shotpix.com/images/93270723853538807296.png


[color=green]
Release Name : Bigg Boss Season 6 Episode 74
Episode Date : 20th December 2012


General
Format : Flash Video
File size : 228 MiB
Duration : 54mn 26s
Overall bit rate : 587 Kbps


Video
Format : AVC
Format/Info : Advanced Video Codec
Format profile : [email protected]
Format settings, CABAC : Yes
Format settings, ReFrames : 3 frames
Codec ID : 7
Duration : 54mn 26s
Bit rate : 450 Kbps
Width : 640 pixels
Height : 360 pixels
Display aspect ratio : 16:9
Frame rate mode : Constant
Frame rate : 25.000 fps
Color space : YUV
Chroma subsampling : 4:2:0
Bit depth : 8 bits
Scan type : Progressive
Bits/(Pixel*Frame) : 0.078
Stream size : 175 MiB (77%)


Audio
Format : AAC
Format/Info : Advanced Audio Codec
Format profile : LC
Codec ID : 10
Duration : 54mn 27s
Bit rate : 129 Kbps
Channel(s) : 2 channels
Channel positions : Front: L R
Sampling rate : 44.1 KHz
Compression mode : Lossy
Stream size : 50.1 MiB (22%)

~~~~~~~~~~~~~~~~~~~~~~~~~~~~~~~~~~~~~~~~~~~~~~~~~~

IMDB
http://www.imdb.com/title/tt1281973/

~~~~~~~~~~~~~~~~~~~~~~~~~~~~~~~~~~~~~~~~~~~~~~~~~~

Screenshot's

http://www.shotpix.com/images/48189744730752773167.png

http://www.shotpix.com/images/73313723748316031598.png

http://www.shotpix.com/images/18577332369987593269.png

http://www.shotpix.com/images/19965583883729900980.png

http://www.shotpix.com/images/26107424075571025493.png

http://www.shotpix.com/images/10300423831012642243.png

http://www.shotpix.com/images/12450949952482603082.png


~~~~~~~~~~~~~~~~~~~~~~~~~~~~~~~~~~~~~~~~~~~~~~~~~~

[quote]Please Seed After Download...!![/quote]

http://kastatic.com/i2/u/2247454/tJOjTnSPmc.gif


~~~~~~~~~~~~~~~~~~~~~~~~~~~~~~~~~~~~~~~~~~~~~~~~~~
[/color]

Related torrents

Torrent NameAddedSizeSeedLeechHealth
Verified torrent
1 Year+ - in TV shows222.53 MB00
Verified torrent
1 Year+ - in TV shows286.81 MB00
Verified torrent
1 Year+ - in TV shows191.34 MB00
Verified torrent
1 Year+ - in TV shows289.37 MB1125
1 Year+ - in TV shows257.49 MB10

Comments (0 Comments)




Please login or create a FREE account to post comments

Latest Searches

| | review forrest s02e04 | veep s02e05 eztv | lupin 1989 | torn xxx dvdrip xvid new 9 september 2012 | Dan Wells Isolation Partials Sequence 0 5 | star vs the forces of evil aliq | rmteam and then | CreativeLive Photoshop Deep Dive Creative Cloud | bldv |