Quick Browse
Movies
TV shows
Music
Games
Applications
Anime
Other

Donate and Support

Friends
Torrents.me
Torrent Download
Free Movies
1337x
RARBG
Torrent Downloads

Bigg Boss Season 6 Episode 75 - Jumme Ki Raat - 21st December 2012 [HimS]


    Seeders : 0      Leechers : 0
Hash :B335851CA93BBF4DD6167D647FD8D598DAFD1D39
Added :1 Year+ by HimSVerified torrent uploader in TV shows
Size :283.36 MB
Stream :Watch Full Movies Online @ Movie4u
Share :








Warning! Do not Download Torrents Without a VPN!
Your IP Address is .   And Location is
Your Internet Provider and Government can track your torrent Activity!  Hide your IP ADDRESS with a VPN!
We Strongly Recommend Using SpyOFF Torrent VPN to Anonymize your Torrenting. It's FREE For 15 Days!

Note :

Please Update (Trackers Info) Before Downloading Torrents to See Updated Seeders And Leechers for Batter Download Speed.

Trackers List

Tracker NameLast CheckStatusSeedersLeechers




Torrent File Content (1 file)


     Bigg Boss Season 6 Episode 75 - Jumme Ki Raat - 21st December 2012.flv -
283.36 MB



Description



[color=green]
Release Name : Bigg Boss Season 6 Episode 75
Episode Date : 21st December 2012


General
Format : Flash Video
File size : 283 MiB
Duration : 45mn 39s
Overall bit rate : 868 Kbps


Video
Format : AVC
Format/Info : Advanced Video Codec
Format profile : [email protected]
Format settings, CABAC : Yes
Format settings, ReFrames : 3 frames
Codec ID : 7
Duration : 45mn 39s
Bit rate : 731 Kbps
Width : 854 pixels
Height : 480 pixels
Display aspect ratio : 16:9
Frame rate mode : Constant
Frame rate : 25.000 fps
Color space : YUV
Chroma subsampling : 4:2:0
Bit depth : 8 bits
Scan type : Progressive
Bits/(Pixel*Frame) : 0.071
Stream size : 239 MiB (84%)


Audio
Format : AAC
Format/Info : Advanced Audio Codec
Format profile : LC
Codec ID : 10
Duration : 45mn 39s
Bit rate : 129 Kbps
Channel(s) : 2 channels
Channel positions : Front: L R
Sampling rate : 44.1 KHz
Compression mode : Lossy
Stream size : 42.0 MiB (15%)

~~~~~~~~~~~~~~~~~~~~~~~~~~~~~~~~~~~~~~~~~~~~~~~~~~

IMDB
http://www.imdb.com/title/tt1281973/

~~~~~~~~~~~~~~~~~~~~~~~~~~~~~~~~~~~~~~~~~~~~~~~~~~

Screenshot's



~~~~~~~~~~~~~~~~~~~~~~~~~~~~~~~~~~~~~~~~~~~~~~~~~~

[quote]Please Seed After Download...!![/quote]

http://kastatic.com/i2/u/2247454/tJOjTnSPmc.gif


~~~~~~~~~~~~~~~~~~~~~~~~~~~~~~~~~~~~~~~~~~~~~~~~~~
[/color]

Related torrents

Torrent NameAddedSizeSeedLeechHealth
Verified torrent
1 Year+ - in TV shows205.73 MB00
Verified torrent
1 Year+ - in TV shows198.64 MB80
Verified torrent
1 Year+ - in TV shows222.53 MB00
Verified torrent
1 Year+ - in TV shows286.81 MB00
Verified torrent
1 Year+ - in TV shows190.91 MB01

Comments (0 Comments)




Please login or create a FREE account to post comments

Latest Searches

| Mathcad 14 PC | true detective web dl 720p | Leaked black | red alienware skin pack x86 x64 rar | hot top 4 2017 | k t Olsen | NARCOS SAISON 1 VOSTFR HDTV | Parov Stelar Seven and Storm | how to be a mc dirty South vol 6 | ash vs evil s02e06 x265 |