Quick Browse
Movies
TV shows
Music
Games
Applications
Anime
Other

Donate and Support

Friends
Torrents.me
Torrent Download
Free Movies
1337x
RARBG
Torrent Downloads

Bigg Boss Season 6 Episode 76 - Super Saturday - 22nd December 2012 [HimS]


    Seeders : 0      Leechers : 0
Hash :5960C9492EF335203AB1A4DCCF5F80D1A11EC348
Added :1 Year+ by HimSVerified torrent uploader in TV shows
Size :248.32 MB
Stream :Watch Full Movies Online @ Movie4u
Share :








Warning! Do not Download Torrents Without a VPN!
Your IP Address is .   And Location is
Your Internet Provider and Government can track your torrent Activity!  Hide your IP ADDRESS with a VPN!
We Strongly Recommend Using SpyOFF Torrent VPN to Anonymize your Torrenting. It's FREE For 15 Days!

Note :

Please Update (Trackers Info) Before Downloading Torrents to See Updated Seeders And Leechers for Batter Download Speed.

Trackers List

Tracker NameLast CheckStatusSeedersLeechers




Torrent File Content (1 file)


     Bigg Boss Season 6 Episode 76 - Super Saturday - 22nd December 2012.flv -
248.32 MB



Description



http://www.shotpix.com/images/77104245009677084892.png


[color=green]
Release Name : Bigg Boss Season 6 Episode 76
Episode Date : 22nd December 2012


General
Format : Flash Video
File size : 248 MiB
Duration : 45mn 55s
Overall bit rate : 756 Kbps


Video
Format : AVC
Format/Info : Advanced Video Codec
Format profile : [email protected]
Format settings, CABAC : Yes
Format settings, ReFrames : 3 frames
Format settings, GOP : M=1, N=50
Codec ID : 7
Duration : 45mn 55s
Bit rate : 619 Kbps
Width : 640 pixels
Height : 360 pixels
Display aspect ratio : 16:9
Frame rate mode : Constant
Frame rate : 25.000 fps
Color space : YUV
Chroma subsampling : 4:2:0
Bit depth : 8 bits
Scan type : Progressive
Bits/(Pixel*Frame) : 0.107
Stream size : 203 MiB (82%)


Audio
Format : AAC
Format/Info : Advanced Audio Codec
Format profile : LC
Codec ID : 10
Duration : 45mn 55s
Bit rate : 129 Kbps
Channel(s) : 2 channels
Channel positions : Front: L R
Sampling rate : 44.1 KHz
Compression mode : Lossy
Stream size : 42.3 MiB (17%)

~~~~~~~~~~~~~~~~~~~~~~~~~~~~~~~~~~~~~~~~~~~~~~~~~~

IMDB
http://www.imdb.com/title/tt1281973/

~~~~~~~~~~~~~~~~~~~~~~~~~~~~~~~~~~~~~~~~~~~~~~~~~~

Screenshot's

http://www.shotpix.com/images/67516030944382698219.png

http://www.shotpix.com/images/68227853444348869803.png

http://www.shotpix.com/images/60931826627835048940.png

http://www.shotpix.com/images/62389304117183543675.png

http://www.shotpix.com/images/26123857513622960888.png


~~~~~~~~~~~~~~~~~~~~~~~~~~~~~~~~~~~~~~~~~~~~~~~~~~

[quote]Please Seed After Download...!![/quote]

http://kastatic.com/i2/u/2247454/tJOjTnSPmc.gif


~~~~~~~~~~~~~~~~~~~~~~~~~~~~~~~~~~~~~~~~~~~~~~~~~~
[/color]

Related torrents

Torrent NameAddedSizeSeedLeechHealth
1 Year+ - in TV shows233.47 MB12
1 Year+ - in TV shows348.75 MB11
1 Year+ - in TV shows233.17 MB10
1 Year+ - in TV shows321.66 MB72
1 Year+ - in TV shows282.14 MB22

Comments (0 Comments)




Please login or create a FREE account to post comments

Latest Searches

| isabelle extreme vollgeschissen | Season 3 Borgia | Aidra Fox July 19 2017 | The Loch S01E02 HDTV x264 ORGANiC ettv | pink floyd flac animal | word storm | Luxurious Cartoon | mandy all heart | lara super slut | mummy 720p hc hdrip x264 m2tv mp4 |