Quick Browse
Movies
TV shows
Music
Games
Applications
Anime
Other

Donate and Support

Friends
Torrents.me
Torrent Download
Free Movies
1337x
RARBG
Torrent Downloads

Verified torrent Bigg Boss Season 6 Episode 77 - 23rd December 2012~~[HimS]~~


    Seeders : 112      Leechers : 5
Hash :26D34CDB4D9B10609E4E0B50B7ED39CE2087FBD2
Added :1 Year+ by HimSVerified torrent uploader in TV shows
Size :289.37 MB
Stream :Watch Full Movies Online @ Movie4u
Share :








Warning! Do not Download Torrents Without a VPN!
Your IP Address is .   And Location is
Your Internet Provider and Government can track your torrent Activity!  Hide your IP ADDRESS with a VPN!
We Strongly Recommend Using SpyOFF Torrent VPN to Anonymize your Torrenting. It's FREE For 15 Days!

Note :

Please Update (Trackers Info) Before Downloading Torrents to See Updated Seeders And Leechers for Batter Download Speed.

Trackers List

Tracker NameLast CheckStatusSeedersLeechers




Torrent File Content (1 file)


     Bigg Boss Season 6 Episode 77 - 23rd December 2012.flv -
289.37 MB



Description



http://www.shotpix.com/images/92542121326365118021.png


[color=green]
Release Name : Bigg Boss Season 6 Episode 77
Episode Date : 23rd December 2012


General
Format : Flash Video
File size : 289 MiB
Duration : 48mn 11s
Overall bit rate : 839 Kbps

Video
Format : AVC
Format/Info : Advanced Video Codec
Format profile : [email protected]
Format settings, CABAC : Yes
Format settings, ReFrames : 3 frames
Codec ID : 7
Duration : 48mn 11s
Bit rate : 703 Kbps
Width : 854 pixels
Height : 480 pixels
Display aspect ratio : 16:9
Frame rate mode : Constant
Frame rate : 25.000 fps
Color space : YUV
Chroma subsampling : 4:2:0
Bit depth : 8 bits
Scan type : Progressive
Bits/(Pixel*Frame) : 0.069
Stream size : 242 MiB (84%)

Audio
Format : AAC
Format/Info : Advanced Audio Codec
Format profile : LC
Codec ID : 10
Duration : 48mn 11s
Bit rate : 129 Kbps
Channel(s) : 2 channels
Channel positions : Front: L R
Sampling rate : 44.1 KHz
Compression mode : Lossy
Stream size : 44.4 MiB (15%)

~~~~~~~~~~~~~~~~~~~~~~~~~~~~~~~~~~~~~~~~~~~~~~~~~~

IMDB
http://www.imdb.com/title/tt1281973/

~~~~~~~~~~~~~~~~~~~~~~~~~~~~~~~~~~~~~~~~~~~~~~~~~~

Screenshot's

http://www.shotpix.com/images/68902382448219117768.png

http://www.shotpix.com/images/07966230807274524064.png

http://www.shotpix.com/images/03452759153286528551.png

http://www.shotpix.com/images/01167996111689426095.png

http://www.shotpix.com/images/02822682090549712831.png

http://www.shotpix.com/images/18420576481177579640.png

http://www.shotpix.com/images/93700500174383601921.png


~~~~~~~~~~~~~~~~~~~~~~~~~~~~~~~~~~~~~~~~~~~~~~~~~~

[quote]Please Seed After Download...!![/quote]

http://kastatic.com/i2/u/2247454/tJOjTnSPmc.gif


~~~~~~~~~~~~~~~~~~~~~~~~~~~~~~~~~~~~~~~~~~~~~~~~~~
[/color]

Related torrents

Torrent NameAddedSizeSeedLeechHealth
Verified torrent
1 Year+ - in TV shows222.53 MB00
Verified torrent
1 Year+ - in TV shows286.81 MB00
Verified torrent
1 Year+ - in TV shows191.34 MB00
1 Year+ - in TV shows228.49 MB00
1 Year+ - in TV shows257.49 MB10

Comments (0 Comments)




Please login or create a FREE account to post comments

Latest Searches

| pc strategy | momoka nishina premium pocha daughter 3 | BigTitsAtSchool 15 09 03 Alison Tyler The Study Buddy 1080p | Switched at Birth S04E10 720p WEB DL DD5 1 H 264 KiNGS rarbg | onyx 320 | Lemon Tree Passage 2014 DVDRip XviD AC3 EVO | bill and teds excellent adventure 1989 720p bdrip x264 silvertorrenthd | alex berenson ghost war | Moms Bang s Two Clits One Dick Jamie Valentine | myfriendshotmom 1080p eva notty |