Quick Browse
Movies
TV shows
Music
Games
Applications
Anime
Other
Facebook
Advertising

Friends
Torrent Download
Movie4u
1337x.to
Torrent Downloads




Verified torrent Bigg Boss Season 6 Episode 78 - 24th December 2012~~[HimS]~~


    Seeders : 1      Leechers : 1
Hash :9A3208E5ECF978AC78421B5D5BF0989FD62BD7FA
Added :1 Year+ by HimSVerified torrent uploader in TV shows
Size :191.34 MB
Stream :WATCH ONLINE @ Movie4u


Bigg Boss Season 6 Episode 78 - 24th December 2012~~[HimS]~~
Free and Fast Download with Usenet 300GB+ free







Trackers List

Tracker NameLast CheckStatusSeedersLeechers




Torrent File Content (1 file)


     Bigg Boss Season 6 Episode 78 - 24th December 2012.flv -
191.34 MB



Description



http://www.shotpix.com/images/21232785820268113880.png

[color=green]
Release Name : Bigg Boss Season 6 Episode 78
Episode Date : 24th December 2012


General
Format : Flash Video
File size : 191 MiB
Duration : 45mn 54s
Overall bit rate : 583 Kbps

Video
Format : AVC
Format/Info : Advanced Video Codec
Format profile : [email protected]
Format settings, CABAC : Yes
Format settings, ReFrames : 3 frames
Codec ID : 7
Duration : 45mn 55s
Bit rate : 446 Kbps
Width : 640 pixels
Height : 360 pixels
Display aspect ratio : 16:9
Frame rate mode : Constant
Frame rate : 25.000 fps
Color space : YUV
Chroma subsampling : 4:2:0
Bit depth : 8 bits
Scan type : Progressive
Bits/(Pixel*Frame) : 0.077
Stream size : 146 MiB (77%)

Audio
Format : AAC
Format/Info : Advanced Audio Codec
Format profile : LC
Codec ID : 10
Duration : 45mn 55s
Bit rate : 129 Kbps
Channel(s) : 2 channels
Channel positions : Front: L R
Sampling rate : 44.1 KHz
Compression mode : Lossy
Stream size : 42.3 MiB (22%)

~~~~~~~~~~~~~~~~~~~~~~~~~~~~~~~~~~~~~~~~~~~~~~~~~~

IMDB
http://www.imdb.com/title/tt1281973/

~~~~~~~~~~~~~~~~~~~~~~~~~~~~~~~~~~~~~~~~~~~~~~~~~~

Screenshot's

http://www.shotpix.com/images/67728463148562778024.png

http://www.shotpix.com/images/18321374874012969318.png

http://www.shotpix.com/images/34828532876238743737.png

http://www.shotpix.com/images/15472633372498951285.png

http://www.shotpix.com/images/27308663962127616901.png

http://www.shotpix.com/images/95711425409607678691.png

http://www.shotpix.com/images/80256334829722195758.png


~~~~~~~~~~~~~~~~~~~~~~~~~~~~~~~~~~~~~~~~~~~~~~~~~~

[quote]Please Seed After Download...!![/quote]

http://kastatic.com/i2/u/2247454/tJOjTnSPmc.gif


~~~~~~~~~~~~~~~~~~~~~~~~~~~~~~~~~~~~~~~~~~~~~~~~~~
[/color]

Related torrents

Torrent NameAddedSizeSeedLeechHealth
Verified torrent
1 Year+ - in TV shows222.53 MB31
Verified torrent
1 Year+ - in TV shows286.81 MB20
Verified torrent
1 Year+ - in TV shows289.37 MB1125
1 Year+ - in TV shows228.49 MB00
1 Year+ - in TV shows257.49 MB10

Comments (0 Comments)




Please login or create a FREE account to post comments

Latest Searches

| Back to the future I dual audio | adventure time with finn and jake s05e06 480p hdtv x264 msd | the kite string wonder | coraline anime | virgin girl | trailer park s dvdrip mp4 | 2016 True PDF ECLiPSE | skrillex diplo where are now feat justin bieber | Hills soundtrack | Windows 7 For Dummies |