Quick Browse
Movies
TV shows
Music
Games
Applications
Anime
Other

Donate and Support

Friends
Torrents.me
Torrent Download
Free Movies
1337x
RARBG
Torrent Downloads

Verified torrent Bigg Boss Season 6 Episode 78 - 24th December 2012~~[HimS]~~


    Seeders : 0      Leechers : 0
Hash :9A3208E5ECF978AC78421B5D5BF0989FD62BD7FA
Added :1 Year+ by HimSVerified torrent uploader in TV shows
Size :191.34 MB
Stream :Watch Full Movies Online @ Movie4u
Share :








Warning! Do not Download Torrents Without a VPN!
Your IP Address is .   And Location is
Your Internet Provider and Government can track your torrent Activity!  Hide your IP ADDRESS with a VPN!
We Strongly Recommend Using SpyOFF Torrent VPN to Anonymize your Torrenting. It's FREE For 15 Days!

Note :

Please Update (Trackers Info) Before Downloading Torrents to See Updated Seeders And Leechers for Batter Download Speed.

Trackers List

Tracker NameLast CheckStatusSeedersLeechers
udp://tracker.coppersurfer.tk:80Last Monthsuccess00
udp://9.rarbg.com:2710/announceLast Monthsuccess00
udp://ipv4.tracker.harry.lu:80/announceLast Monthsuccess00
http://tracker.trackerfix.com/announceLast Monthsuccess00




Torrent File Content (1 file)


     Bigg Boss Season 6 Episode 78 - 24th December 2012.flv -
191.34 MB



Description



http://www.shotpix.com/images/21232785820268113880.png

[color=green]
Release Name : Bigg Boss Season 6 Episode 78
Episode Date : 24th December 2012


General
Format : Flash Video
File size : 191 MiB
Duration : 45mn 54s
Overall bit rate : 583 Kbps

Video
Format : AVC
Format/Info : Advanced Video Codec
Format profile : [email protected]
Format settings, CABAC : Yes
Format settings, ReFrames : 3 frames
Codec ID : 7
Duration : 45mn 55s
Bit rate : 446 Kbps
Width : 640 pixels
Height : 360 pixels
Display aspect ratio : 16:9
Frame rate mode : Constant
Frame rate : 25.000 fps
Color space : YUV
Chroma subsampling : 4:2:0
Bit depth : 8 bits
Scan type : Progressive
Bits/(Pixel*Frame) : 0.077
Stream size : 146 MiB (77%)

Audio
Format : AAC
Format/Info : Advanced Audio Codec
Format profile : LC
Codec ID : 10
Duration : 45mn 55s
Bit rate : 129 Kbps
Channel(s) : 2 channels
Channel positions : Front: L R
Sampling rate : 44.1 KHz
Compression mode : Lossy
Stream size : 42.3 MiB (22%)

~~~~~~~~~~~~~~~~~~~~~~~~~~~~~~~~~~~~~~~~~~~~~~~~~~

IMDB
http://www.imdb.com/title/tt1281973/

~~~~~~~~~~~~~~~~~~~~~~~~~~~~~~~~~~~~~~~~~~~~~~~~~~

Screenshot's

http://www.shotpix.com/images/67728463148562778024.png

http://www.shotpix.com/images/18321374874012969318.png

http://www.shotpix.com/images/34828532876238743737.png

http://www.shotpix.com/images/15472633372498951285.png

http://www.shotpix.com/images/27308663962127616901.png

http://www.shotpix.com/images/95711425409607678691.png

http://www.shotpix.com/images/80256334829722195758.png


~~~~~~~~~~~~~~~~~~~~~~~~~~~~~~~~~~~~~~~~~~~~~~~~~~

[quote]Please Seed After Download...!![/quote]

http://kastatic.com/i2/u/2247454/tJOjTnSPmc.gif


~~~~~~~~~~~~~~~~~~~~~~~~~~~~~~~~~~~~~~~~~~~~~~~~~~
[/color]

Related torrents

Torrent NameAddedSizeSeedLeechHealth
Verified torrent
1 Year+ - in TV shows222.53 MB00
Verified torrent
1 Year+ - in TV shows286.81 MB00
Verified torrent
1 Year+ - in TV shows289.37 MB1125
1 Year+ - in TV shows228.49 MB00
1 Year+ - in TV shows257.49 MB10

Comments (0 Comments)




Please login or create a FREE account to post comments

Latest Searches

| Aidras Toy Chest | aaliyah final | pocahontas espanol latino | Muse survival live | Trivandrum Lodge 2012 | Ramon Ayala Cds | massive r b 2009 | pissing 7 | Mission Impossible Rogue Nation 2015 HD Movie | Asspiratoins 3 Franceska Jaimes Brazzers Scene 2 |