Quick Browse
Movies
TV shows
Music
Games
Applications
Anime
Other
Facebook
Friends
Torrent Download
Movie4u
1337x.to
Torrent Downloads

Verified torrent Bigg Boss Season 6 Episode 80 - 26th December 2012~~[HimS]~~


    Seeders : 2      Leechers : 0

Trackers List

Tracker NameLast CheckStatusSeedersLeechers




Torrent File Content (1 file)


     Bigg Boss Season 6 Episode 80 - 26th December 2012.flv -
286.81 MB



Description



http://i.imgur.com/qkQrw.png

[color=green]
Release Name : Bigg Boss Season 6 Episode 80
Episode Date : 26th December 2012


General
Format : Flash Video
File size : 287 MiB
Duration : 44mn 42s
Overall bit rate : 897 Kbps

Video
Format : AVC
Format/Info : Advanced Video Codec
Format profile : [email protected]
Format settings, CABAC : Yes
Format settings, ReFrames : 3 frames
Format settings, GOP : M=1, N=50
Codec ID : 7
Duration : 44mn 42s
Bit rate : 760 Kbps
Width : 854 pixels
Height : 480 pixels
Display aspect ratio : 16:9
Frame rate mode : Constant
Frame rate : 25.000 fps
Color space : YUV
Chroma subsampling : 4:2:0
Bit depth : 8 bits
Scan type : Progressive
Bits/(Pixel*Frame) : 0.074
Stream size : 243 MiB (85%)

Audio
Format : AAC
Format/Info : Advanced Audio Codec
Format profile : LC
Codec ID : 10
Duration : 44mn 42s
Bit rate : 129 Kbps
Channel(s) : 2 channels
Channel positions : Front: L R
Sampling rate : 44.1 KHz
Compression mode : Lossy
Stream size : 41.2 MiB (14%)

~~~~~~~~~~~~~~~~~~~~~~~~~~~~~~~~~~~~~~~~~~~~~~~~~~

IMDB
http://www.imdb.com/title/tt1281973/

~~~~~~~~~~~~~~~~~~~~~~~~~~~~~~~~~~~~~~~~~~~~~~~~~~

Screenshot's

http://i.imgur.com/JUxxw.png

http://i.imgur.com/zMMD2.png

http://i.imgur.com/TylGz.png

http://i.imgur.com/8Jx9h.png

http://i.imgur.com/ubJfy.png

http://i.imgur.com/489V0.png

http://i.cubeupload.com/UZX27u.png


~~~~~~~~~~~~~~~~~~~~~~~~~~~~~~~~~~~~~~~~~~~~~~~~~~

[quote]Please Seed After Download...!![/quote]

http://kastatic.com/i2/u/2247454/tJOjTnSPmc.gif


~~~~~~~~~~~~~~~~~~~~~~~~~~~~~~~~~~~~~~~~~~~~~~~~~~
[/color]

Related torrents

Torrent NameAddedSizeSeedLeechHealth
Verified torrent
1 Year+ - in TV shows222.53 MB31
Verified torrent
1 Year+ - in TV shows191.34 MB11
Verified torrent
1 Year+ - in TV shows289.37 MB1125
1 Year+ - in TV shows228.49 MB00
1 Year+ - in TV shows257.49 MB10

Comments (0 Comments)




Please login or create a FREE account to post comments

Latest Searches

| onerepublic kids | 300 Rise of an Empire 2014 in hindi | Dorm Room Mix Up brazzers | honey for all | shake it move a little | A R Rahman Songs | Makayla Cox Eva Long Joseline Kelly | The Weekend earned it | gothic 1 06 | akira job |