Quick Browse
Movies
TV shows
Music
Games
Applications
Anime
Other

Donate and Support

Friends
Torrents.me
Torrent Download
Free Movies
1337x
RARBG
Torrent Downloads

Verified torrent Bigg Boss Season 6 Episode 80 - 26th December 2012~~[HimS]~~


    Seeders : 0      Leechers : 0
Hash :325D1BB0CD9804F5DDEEACD4BA6A1495651C9BDD
Added :1 Year+ by HimSVerified torrent uploader in TV shows
Size :286.81 MB
Stream :Watch Full Movies Online @ Movie4u
Share :


Bigg Boss Season 6 Episode 80 - 26th December 2012~~[HimS]~~
Anonymous and Direct Download 300GB+ free







Warning! Do not Download Torrents Without a VPN!
Your IP Address is .   And Location is
Your Internet Provider and Government can track your torrent Activity!  Hide your IP ADDRESS with a VPN!
We Strongly Recommend Using SpyOFF Torrent VPN to Anonymize your Torrenting. It's FREE For 15 Days!

Note :

Please Update (Trackers Info) Before Downloading Torrents to See Updated Seeders And Leechers for Batter Download Speed.

Trackers List

Tracker NameLast CheckStatusSeedersLeechers
udp://tracker.coppersurfer.tk:807 days agosuccess00
udp://9.rarbg.com:2710/announce7 days agosuccess00
http://tracker.trackerfix.com/announce7 days agosuccess00
udp://ipv4.tracker.harry.lu:80/announce7 days agosuccess00




Torrent File Content (1 file)


     Bigg Boss Season 6 Episode 80 - 26th December 2012.flv -
286.81 MB



Description



http://i.imgur.com/qkQrw.png

[color=green]
Release Name : Bigg Boss Season 6 Episode 80
Episode Date : 26th December 2012


General
Format : Flash Video
File size : 287 MiB
Duration : 44mn 42s
Overall bit rate : 897 Kbps

Video
Format : AVC
Format/Info : Advanced Video Codec
Format profile : Main@L3.0
Format settings, CABAC : Yes
Format settings, ReFrames : 3 frames
Format settings, GOP : M=1, N=50
Codec ID : 7
Duration : 44mn 42s
Bit rate : 760 Kbps
Width : 854 pixels
Height : 480 pixels
Display aspect ratio : 16:9
Frame rate mode : Constant
Frame rate : 25.000 fps
Color space : YUV
Chroma subsampling : 4:2:0
Bit depth : 8 bits
Scan type : Progressive
Bits/(Pixel*Frame) : 0.074
Stream size : 243 MiB (85%)

Audio
Format : AAC
Format/Info : Advanced Audio Codec
Format profile : LC
Codec ID : 10
Duration : 44mn 42s
Bit rate : 129 Kbps
Channel(s) : 2 channels
Channel positions : Front: L R
Sampling rate : 44.1 KHz
Compression mode : Lossy
Stream size : 41.2 MiB (14%)

~~~~~~~~~~~~~~~~~~~~~~~~~~~~~~~~~~~~~~~~~~~~~~~~~~

IMDB
http://www.imdb.com/title/tt1281973/

~~~~~~~~~~~~~~~~~~~~~~~~~~~~~~~~~~~~~~~~~~~~~~~~~~

Screenshot's

http://i.imgur.com/JUxxw.png

http://i.imgur.com/zMMD2.png

http://i.imgur.com/TylGz.png

http://i.imgur.com/8Jx9h.png

http://i.imgur.com/ubJfy.png

http://i.imgur.com/489V0.png

http://i.cubeupload.com/UZX27u.png


~~~~~~~~~~~~~~~~~~~~~~~~~~~~~~~~~~~~~~~~~~~~~~~~~~

[quote]Please Seed After Download...!![/quote]

http://kastatic.com/i2/u/2247454/tJOjTnSPmc.gif


~~~~~~~~~~~~~~~~~~~~~~~~~~~~~~~~~~~~~~~~~~~~~~~~~~
[/color]

Related torrents

Torrent NameAddedSizeSeedLeechHealth
Verified torrent
1 Year+ - in TV shows222.53 MB00
Verified torrent
1 Year+ - in TV shows191.34 MB00
Verified torrent
1 Year+ - in TV shows289.37 MB1125
1 Year+ - in TV shows228.49 MB00
1 Year+ - in TV shows257.49 MB10

Comments (0 Comments)




Please login or create a FREE account to post comments

Latest Searches

| microsoft office home edition | | MANA VOCE | hindi Audio songs mp3 | trying on my sisters husband | teens anal big ass | aussiefellatioqueens summer | | lakers dec 15 | brooke wylde hawaii |