Quick Browse
Movies
TV shows
Music
Games
Applications
Anime
Other

Donate and Support

Friends
Torrents.me
Torrent Download
Free Movies
1337x
RARBG
Torrent Downloads

Verified torrent Bigg Boss season 6 Episode 79 - 25th December 2012 - Christmas Special~~[HimS]~~


    Seeders : 6      Leechers : 44
Hash :43D94C7AC0A8B2BAD98D77A4B5FCEE59A58A3B90
Added :1 Year+ by HimSVerified torrent uploader in TV shows
Size :190.91 MB
Stream :Watch Full Movies Online @ Movie4u
Share :








Warning! Do not Download Torrents Without a VPN!
Your IP Address is .   And Location is
Your Internet Provider and Government can track your torrent Activity!  Hide your IP ADDRESS with a VPN!
We Strongly Recommend Using SpyOFF Torrent VPN to Anonymize your Torrenting. It's FREE For 15 Days!

Note :

Please Update (Trackers Info) Before Downloading Torrents to See Updated Seeders And Leechers for Batter Download Speed.

Trackers List

Tracker NameLast CheckStatusSeedersLeechers




Torrent File Content (1 file)


     Bigg Boss season 6 Episode 79 - 25th December 2012 - Christmas Special.FLV -
190.91 MB



Description



http://www.shotpix.com/images/21232785820268113880.png

[color=green]
Release Name : Bigg Boss Season 6 Episode 79
Episode Date : 25th December 2012

General
Format : Flash Video
File size : 191 MiB
Duration : 45mn 34s
Overall bit rate : 586 Kbps

Video
Format : AVC
Format/Info : Advanced Video Codec
Format profile : [email protected]
Format settings, CABAC : Yes
Format settings, ReFrames : 3 frames
Codec ID : 7
Duration : 45mn 34s
Bit rate : 449 Kbps
Width : 640 pixels
Height : 360 pixels
Display aspect ratio : 16:9
Frame rate mode : Constant
Frame rate : 25.000 fps
Color space : YUV
Chroma subsampling : 4:2:0
Bit depth : 8 bits
Scan type : Progressive
Bits/(Pixel*Frame) : 0.078
Stream size : 146 MiB (77%)

Audio
Format : AAC
Format/Info : Advanced Audio Codec
Format profile : LC
Codec ID : 10
Duration : 45mn 34s
Bit rate : 129 Kbps
Channel(s) : 2 channels
Channel positions : Front: L R
Sampling rate : 44.1 KHz
Compression mode : Lossy
Stream size : 42.0 MiB (22%)

~~~~~~~~~~~~~~~~~~~~~~~~~~~~~~~~~~~~~~~~~~~~~~~~~~

IMDB
http://www.imdb.com/title/tt1281973/

~~~~~~~~~~~~~~~~~~~~~~~~~~~~~~~~~~~~~~~~~~~~~~~~~~

Screenshot's

http://www.shotpix.com/images/71919511505730257620.png

http://www.shotpix.com/images/68848824837171120297.png

http://www.shotpix.com/images/90280153577298479072.png

http://www.shotpix.com/images/19955851627440925819.png

http://www.shotpix.com/images/28653400217251661624.png

http://www.shotpix.com/images/28469510953563205750.png

http://www.shotpix.com/images/94761614723563922205.png


~~~~~~~~~~~~~~~~~~~~~~~~~~~~~~~~~~~~~~~~~~~~~~~~~~

[quote]Please Seed After Download...!![/quote]

http://kastatic.com/i2/u/2247454/tJOjTnSPmc.gif


~~~~~~~~~~~~~~~~~~~~~~~~~~~~~~~~~~~~~~~~~~~~~~~~~~
[/color]

Related torrents

Torrent NameAddedSizeSeedLeechHealth
Verified torrent
1 Year+ - in TV shows198.64 MB80
Verified torrent
1 Year+ - in TV shows222.53 MB31
Verified torrent
1 Year+ - in TV shows205.73 MB00
Verified torrent
1 Year+ - in TV shows286.81 MB20
Verified torrent
1 Year+ - in TV shows191.34 MB11

Comments (0 Comments)




Please login or create a FREE account to post comments

Latest Searches

| Rain 2010 | RKPrime Naomi Woods The Right Size | bulgariaHD 1080p | transformers 5 ger | Brazzers eat my | Billboard Hot 100 Singles Chart 24 06 2017 | bulgaria 1080p | Lovia Clean | reo a second decade of rock n roll | Justin Bieber My World FLAC |