Quick Browse
Movies
TV shows
Music
Games
Applications
Anime
Other
Facebook
Advertising

Friends
Torrent Download
Movie4u
1337x.to
Torrent Downloads




Verified torrent Biggie And TuPac [Documentary] [DVD] [AC3] [Hannspree]


    Seeders : 0      Leechers : 0
Hash :907B622608849AF9869FA8328CC8A6C519F46F6F
Added :1 Year+ by HannspreeVerified torrent uploader in Movies
Size :2.85 GB
Stream :WATCH ONLINE @ Movie4u


Biggie And TuPac [Documentary] [DVD] [AC3] [Hannspree]
Free and Fast Download with Usenet 300GB+ free







Trackers List

Tracker NameLast CheckStatusSeedersLeechers




Torrent File Content (12 files)


Biggie And TuPac [Documentary]
    Biggie And Tupac [Documentary]
          VIDEO_TS/VIDEO_TS.BUP -
12 KB

          VIDEO_TS/VIDEO_TS.IFO -
12 KB

          VIDEO_TS/VIDEO_TS.VOB -
58 KB

          VIDEO_TS/VTS_01_0.BUP -
74 KB

          VIDEO_TS/VTS_01_0.IFO -
74 KB

          VIDEO_TS/VTS_01_0.VOB -
58 KB

          VIDEO_TS/VTS_01_1.VOB -
1023.97 MB

          VIDEO_TS/VTS_01_2.VOB -
1023.97 MB

          VIDEO_TS/VTS_01_3.VOB -
865.45 MB

          Biggie And Tupac [Documentary] Covers/Biggie And Tupac - Cover.jpg -
479.98 KB

          Biggie And Tupac [Documentary] Covers/Biggie And Tupac - Disc.jpg -
148.63 KB

     Biggie And Tupac [Documentary].NFO -
5.8 KB



Description



====================================================================================================
[ Another free and high quality, ready to burn DVD - I will be adding new torrents on a daily basis - Remember to seed ]
====================================================================================================
MOVIE TITLE: Biggie And Tupac
LANGUAGE: English
MOVIE SUBS: No - (subtitles if/when required)
BURN TESTED: Yes
FORMAT: Pal
GENRE: Documentary | Biography | Crime | Music
RUNTIME: 107 Minutes
YEAR: 2002
IMDB LINK: http://www.imdb.com/title/tt0303356/
====================================================================================================
GENERAL MOVIE DESC:

In 1997, rap superstars Tupac Shakur and Christopher Wallace (aka Biggie Smalls, The Notorious B.I.G.) were gunned down in separate
incidents, the apparent victims of hip hop's infamous east-west rivalry. Nick Broomfield's film introduces Russell Poole, an ex-cop with
damning evidence that suggests the LAPD deliberately fumbled the case to conceal connections between the police, LA gangs and
Death Row Records, the label run by feared rap mogul Marion "Suge" Knight.
====================================================================================================
GENERAL MOVIE SPECS:

GENERAL:
Complete name : Biggie And TuPac [Documentary]
Format : MPEG-PS
File size : 2.84 GB
Duration : 107 Minutes
Overall bit rate : 4 215 Kbps

VIDEO:
ID : 224 (0xE0)
Format : MPEG Video
Format version : Version 2
Format profile : [email protected]
Format settings, BVOP : Yes
Format settings, Matrix : Default
Duration : 107 Minutes
Bit rate mode : Variable
Bit rate : 3 939 Kbps
Nominal bit rate : 9 608 Kbps
Width : 720 pixels
Height : 576 pixels
Display aspect ratio : 16:9
Frame rate : 24.000 fps
Standard : PAL
Color space : YUV
Chroma subsampling : 4:2:0
Bit depth : 8 bits
Scan type : Progressive
Scan order : 2:2:2:2:2:2:2:2:2:2:2:3 Pulldown
Bits/(Pixel*Frame) : 0.396
Stream size : 957 MiB (93%)

AUDIO:
ID : 128 (0x80)
Format : AC-3
Format/Info : Audio Coding 3
Mode extension : CM (complete main)
Duration : 107 Minutes
Bit rate mode : Constant
Bit rate : 192 Kbps
Channel(s) : 2 channels
Channel positions : Front: L R
Sampling rate : 48.0 KHz
Stream size : 46.6 MiB (5%)
====================================================================================================

Related torrents

Torrent NameAddedSizeSeedLeechHealth
Verified torrent
1 Year+ - in Movies1.54 GB14
Verified torrent
1 Year+ - in Movies2.46 GB01
Verified torrent
1 Year+ - in Movies2.74 GB13
1 Year+ - in Movies698.91 MB00
9 months ago - in Movies3.38 GB1332

Comments (0 Comments)




Please login or create a FREE account to post comments

Latest Searches

| Hooten the Lady S01E02 HDTV x264 TLA | momxxx yearning | justin b new | The 7 Habits of Highly Effective People Powerful | the killing S02 E03 | walking dead speranzah | euro truck 2 14 | ole e music | christmas NL SUB | abgesaugt |