Quick Browse
Movies
TV shows
Music
Games
Applications
Anime
Other
Facebook
Advertising

Friends
Torrent Download
Movie4u
1337x.to
Torrent Downloads




Verified torrent Birdsong 2012 BRRip XviD Ac3 Feel-Free


    Seeders : 0      Leechers : 0
Hash :92D774A01B26487953AF6838B1F9FE036B76FD27
Added :1 Year+ by SAHIBGREWVerified torrent uploader in Movies
Size :1.86 GB
Stream :WATCH ONLINE @ Movie4u


Birdsong 2012 BRRip XviD Ac3 Feel-Free
Free and Fast Download with Usenet 300GB+ free







Trackers List

Tracker NameLast CheckStatusSeedersLeechers




Torrent File Content (10 files)


Birdsong.2012.BRRip.XviD.Ac3.Feel-Free
     Birdsong.2012.BRRip.XviD.Ac3.Feel-Free.nfo -
4.98 KB

     Birdsong.2012.Part 1 .BRRip.XviD.Ac3.Feel-Free.avi -
996.95 MB

     Birdsong.2012.Part 2 .BRRip.XviD.Ac3.Feel-Free.avi -
910.75 MB

     birdsong.jpg -
31.59 KB

     Torrent downloaded from Extratorrent.com.txt -
171 bytes

     vlcsnap-2012-03-15-06h53m36s76.png -
419.83 KB

     vlcsnap-2012-03-15-06h53m46s188.png -
195.28 KB

     vlcsnap-2012-03-15-06h54m13s188.png -
273.52 KB

     vlcsnap-2012-03-15-06h54m25s58.png -
270.08 KB

     vlcsnap-2012-03-15-06h55m26s155.png -
297.17 KB



Description



http://i31.fastpic.ru/big/2012/0315/65/80544f7177fdd1e7ce02f6f632baa165.jpg


[code]

Genre: drama | History | Romance
Language:English
IMDb:http://www.imdb.com/title/tt1127876/
Source:BluRay.x264.DTS-HDChina Thanks!
Encoder:Tony

Part 1

Format : AVI
Format/Info : Audio Video Interleave
File size : 997 MiB
Duration : 1h 24mn
Overall bit rate : 1 649 Kbps

Codec ID/Hint : XviD
Duration : 1h 24mn
Bit rate : 1 191 Kbps
Width : 640 pixels
Height : 360 pixels
Display aspect ratio : 16:9
Frame rate : 25.000 fps
Color space : YUV
Chroma subsampling : 4:2:0
Bit depth : 8 bits
Scan type : Progressive
Compression mode : Lossy
Bits/(Pixel*Frame) : 0.207
Stream size : 720 MiB (72%)
Writing library : XviD 1.2.1 (UTC 2008-12-04)

Audio
ID : 1
Format : AC-3
Format/Info : Audio Coding 3
Mode extension : CM (complete main)
Codec ID : 2000
Duration : 1h 24mn
Bit rate mode : Constant
Bit rate : 448 Kbps
Channel(s) : 6 channels
Channel positions : Front: L C R, Side: L R, LFE
Sampling rate : 48.0 KHz
Bit depth : 16 bits
Compression mode : Lossy
Stream size : 271 MiB (27%)
Alignment : Aligned on interleaves
Interleave, duration : 40 ms (1.00 video frame)
Interleave, preload duration : 512 ms

Part 2

Format : AVI
Format/Info : Audio Video Interleave
File size : 911 MiB
Duration : 1h 20mn
Overall bit rate : 1 580 Kbps

Codec ID/Hint : XviD
Duration : 1h 20mn
Bit rate : 1 123 Kbps
Width : 640 pixels
Height : 360 pixels
Display aspect ratio : 16:9
Frame rate : 25.000 fps
Color space : YUV
Chroma subsampling : 4:2:0
Bit depth : 8 bits
Scan type : Progressive
Compression mode : Lossy
Bits/(Pixel*Frame) : 0.195
Stream size : 647 MiB (71%)
Writing library : XviD 1.2.1 (UTC 2008-12-04)

Audio
ID : 1
Format : AC-3
Format/Info : Audio Coding 3
Mode extension : CM (complete main)
Codec ID : 2000
Duration : 1h 20mn
Bit rate mode : Constant
Bit rate : 448 Kbps
Channel(s) : 6 channels
Channel positions : Front: L C R, Side: L R, LFE
Sampling rate : 48.0 KHz
Bit depth : 16 bits
Compression mode : Lossy
Stream size : 258 MiB (28%)
Alignment : Aligned on interleaves
Interleave, duration : 40 ms (1.00 video frame)
Interleave, preload duration : 512 ms


Plot:
As an English soldier fights in the horrific trenches of northern France, he is haunted by the memories of his forbidden love affair with a French woman.

TRAILER:
[embed=youtube]http://www.youtube.com/watch?v=NNXw2ZjvEdU[/embed]

[/code]


http://img109.imageshack.us/img109/1194/vlcsnap2012031506h53m46.png

http://img27.imageshack.us/img27/7140/vlcsnap2012031506h54m13.png

http://img820.imageshack.us/img820/9546/vlcsnap2012031506h55m26.png

Related torrents

Torrent NameAddedSizeSeedLeechHealth
1 Year+ - in Movies1.43 GB00
1 Year+ - in Movies1.2 GB00
1 Year+ - in Movies1.26 GB08
1 Year+ - in Movies1.32 GB07
1 Year+ - in Movies1.32 GB1931

Comments (0 Comments)




Please login or create a FREE account to post comments

Latest Searches

| audiobook harry potter 3 | My Friends Hot Boyfriend | avy love | greenvelle lesbian | g i joe s03e05 | My Friends Hot Boyfriend 12 | baby its cold | incarnate2016 | Real Food Slow Cooker Suppers | clip this girl |