Quick Browse
Movies
TV shows
Music
Games
Applications
Anime
Other
Facebook
Advertising

Friends
Torrent Download
Movie4u
1337x.to
Torrent Downloads




Verified torrent Birdsong Part 1 2012 BRRip Ac3 Xvid ANALOG


    Seeders : 0      Leechers : 0
Hash :DF3FA8B7608BD1F1A14A856B500987019920AC87
Added :1 Year+ by SAHIBGREWVerified torrent uploader in Movies
Size :1.4 GB
Stream :WATCH ONLINE @ Movie4u


Birdsong Part 1 2012 BRRip Ac3 Xvid ANALOG
Free and Fast Download with Usenet 300GB+ free







Trackers List

Tracker NameLast CheckStatusSeedersLeechers




Torrent File Content (8 files)


[ UsaBit.com ] - Birdsong.Part.1.2012.BRRip.Ac3.Xvid.ANALOG
     1.png -
505.22 KB

     2.png -
438.76 KB

     3.png -
492.06 KB

     4.png -
404.73 KB

     B.P1.2012.BRR.ANALOG.avi -
1.38 GB

     B.P1.2012.BRR.ANALOG.nfo -
5.84 KB

     B.P1.2012.BRR.ANALOG.sample.avi -
16.04 MB

     www.UsaBit.com.txt -
1 bytes



Description



http://i31.fastpic.ru/big/2012/0315/65/80544f7177fdd1e7ce02f6f632baa165.jpg



[code]



Birdsong Part 1 2012 BRRip Ac3 Xvid ANALOG

Birdsong Part 1 2012 BRRip Ac3 Xvid ANALOG
Rating: 10/10 Votes: 1


Size: 1.39 GB
Language: English
Downloaded: 140 time(s)

Torrent NFO Birdsong Part 1 2012 BRRip Ac3 Xvid ANALOG







Complete name : C:UsersrootDesktopBirdsong.Part.1.2012.BRRip.Ac3.Xvid.ANALOGB.P1.2012.BRR.ANALOG.avi
Format : AVI
Format/Info : Audio Video Interleave
Format profile : OpenDML
File size : 1.38 GiB
Duration : 1h 24mn
Overall bit rate : 2 334 Kbps
Writing library : VirtualDub build 32842/release

Video
ID : 0
Format : MPEG-4 Visual
Format profile : Advanced [email protected]
Format settings, BVOP : 2
Format settings, QPel : No
Format settings, GMC : No warppoints
Format settings, Matrix : Default (H.263)
Muxing mode : Packed bitstream
Codec ID : XVID
Codec ID/Hint : XviD
Duration : 1h 24mn
Bit rate : 1 875 Kbps
Width : 720 pixels
Height : 400 pixels
Display aspect ratio : 16:9
Frame rate : 25.000 fps
Color space : YUV
Chroma subsampling : 4:2:0
Bit depth : 8 bits
Scan type : Progressive
Compression mode : Lossy
Bits/(Pixel*Frame) : 0.260
Stream size : 1.11 GiB (80%)
Writing library : XviD 58

Audio
ID : 1
Format : AC-3
Format/Info : Audio Coding 3
Mode extension : CM (complete main)
Codec ID : 2000
Duration : 1h 24mn
Bit rate mode : Constant
Bit rate : 448 Kbps
Channel(s) : 6 channels
Channel positions : Front: L C R, Side: L R, LFE
Sampling rate : 48.0 KHz
Bit depth : 16 bits
Compression mode : Lossy
Stream size : 271 MiB (19%)
Alignment : Aligned on interleaves
Interleave, duration : 40 ms (1.00 video frame)
Interleave, preload duration : 512 ms
Subs : English/hardcoded/embed when needed
Sample : Yes
Source : 1080p HDC THANX

http://www.imdb.com/title/tt1127876/


[/code]


http://i2.lulzimg.com/bd2c1fce65.png

http://i2.lulzimg.com/e591398ac8.png

http://i2.lulzimg.com/53bd4d4c84.png

Related torrents

Torrent NameAddedSizeSeedLeechHealth
Verified torrent
1 Year+ - in Movies1.39 GB3337
1 Year+ - in Movies1.38 GB00
1 Year+ - in Movies1.56 GB287
1 Year+ - in Movies1.55 GB169
1 Year+ - in Movies1.55 GB6542

Comments (0 Comments)




Please login or create a FREE account to post comments

Latest Searches

| rick swan | Spill full discography | jefferson airplane | Shameless US S03E10 1080p WEB DL DD5 1 H 264 KiNGS | Teenfidelity morning 1080p | cup girls new sensations web dl split scenes | kid cudi cudi man on the moon | i triedso hard | ft dj loaf | 3 more seconds |