Quick Browse
Movies
TV shows
Music
Games
Applications
Anime
Other
Facebook
Advertising

Friends
Torrent Download
Movie4u
1337x.to
Torrent Downloads




Verified torrent Birdsong Part 2 2012 BRRip Ac3 Xvid ANALOG


    Seeders : 33      Leechers : 37
Hash :4449E7256363EB345D88758A03EE93CB6CDE0FF5
Added :1 Year+ by SAHIBGREWVerified torrent uploader in Movies
Size :1.39 GB
Stream :WATCH ONLINE @ Movie4u


Birdsong Part 2 2012 BRRip Ac3 Xvid ANALOG
Free and Fast Download with Usenet 300GB+ free







Trackers List

Tracker NameLast CheckStatusSeedersLeechers




Torrent File Content (8 files)


[ UsaBit.com ] - Birdsong.Part.2.2012.BRRip.Ac3.Xvid.ANALOG
     1.png -
532.09 KB

     2.png -
335.65 KB

     3.png -
391.8 KB

     4.png -
428.83 KB

     B.P2.2012.BRR.ANALOG.avi -
1.38 GB

     B.P2.2012.BRR.ANALOG.nfo -
5.84 KB

     B.P2.2012.BRR.ANALOG.sample.avi -
13.48 MB

     www.UsaBit.com.txt -
1 bytes



Description



http://i31.fastpic.ru/big/2012/0315/65/80544f7177fdd1e7ce02f6f632baa165.jpg


[code]

As an English soldier fights in the horrific trenches of northern France, he is haunted by the memories of his forbidden love affair with a French woman.

http://www.imdb.com/title/tt1127876/

Complete name : C:UsersrootDesktopBirdsong.Part.2.2012.BRRip.Ac3.Xvid.ANALOGB.P2.2012.BRR.ANALOG.avi
Format : AVI
Format/Info : Audio Video Interleave
Format profile : OpenDML
File size : 1.38 GiB
Duration : 1h 20mn
Overall bit rate : 2 451 Kbps
Writing library : VirtualDub build 32842/release

Video
ID : 0
Format : MPEG-4 Visual
Format profile : Advanced [email protected]
Format settings, BVOP : 2
Format settings, QPel : No
Format settings, GMC : No warppoints
Format settings, Matrix : Default (H.263)
Muxing mode : Packed bitstream
Codec ID : XVID
Codec ID/Hint : XviD
Duration : 1h 20mn
Bit rate : 1 992 Kbps
Width : 720 pixels
Height : 400 pixels
Display aspect ratio : 16:9
Frame rate : 25.000 fps
Color space : YUV
Chroma subsampling : 4:2:0
Bit depth : 8 bits
Scan type : Progressive
Compression mode : Lossy
Bits/(Pixel*Frame) : 0.277
Stream size : 1.12 GiB (81%)
Writing library : XviD 58

Audio
ID : 1
Format : AC-3
Format/Info : Audio Coding 3
Mode extension : CM (complete main)
Codec ID : 2000
Duration : 1h 20mn
Bit rate mode : Constant
Bit rate : 448 Kbps
Channel(s) : 6 channels
Channel positions : Front: L C R, Side: L R, LFE
Sampling rate : 48.0 KHz
Bit depth : 16 bits
Compression mode : Lossy
Stream size : 258 MiB (18%)
Alignment : Aligned on interleaves
Interleave, duration : 40 ms (1.00 video frame)
Interleave, preload duration : 512 ms
Subs : English/hardcoded/embed when needed
Sample : Yes
Source : 1080p HDC THANX


[/code]



http://i2.lulzimg.com/f62e1b388e.png

http://i2.lulzimg.com/fd346f9bc8.png

http://i2.lulzimg.com/d78382e7dd.png

Related torrents

Torrent NameAddedSizeSeedLeechHealth
Verified torrent
1 Year+ - in Movies1.4 GB00
1 Year+ - in Movies1.38 GB00
1 Year+ - in Movies1.56 GB287
1 Year+ - in Movies1.55 GB169
1 Year+ - in Movies1.55 GB6542

Comments (0 Comments)




Please login or create a FREE account to post comments

Latest Searches

| ggg khadisha latina im spermaland | NubileFilms Elsa Jean Lily Rader HEVC | andron 2015 1080p x265 | Ball Super 068 | Rock Blues Rivherside Elektraw Blues Album 2016 Jamal The Moroccan | jamie foxx be | Fergie N I L F | the f manual | andron 2015 1080p x264 | top wet evil angel |