Quick Browse
Movies
TV shows
Music
Games
Applications
Anime
Other
Facebook
Advertising

Friends
Torrent Download
Movie4u
1337x.to
Torrent Downloads




Verified torrent Blood [The Last Vampire] [2009] [Eng] [DVD] [AC3] [Hannspree]


    Seeders : 1      Leechers : 0

Trackers List

Tracker NameLast CheckStatusSeedersLeechers




Torrent File Content (12 files)


Blood [The Last Vampire]
    Blood [The Last Vampire] DVD
          Blood [The Last Vampire] Covers/Blood [The Last Vampire] Cover.jpg -
53.28 KB

          Blood [The Last Vampire] Covers/Blood [The Last Vampire] Disc.jpg -
26.46 KB

          VIDEO_TS/VIDEO_TS.BUP -
12 KB

          VIDEO_TS/VIDEO_TS.IFO -
12 KB

          VIDEO_TS/VIDEO_TS.VOB -
60 KB

          VIDEO_TS/VTS_01_0.BUP -
62 KB

          VIDEO_TS/VTS_01_0.IFO -
62 KB

          VIDEO_TS/VTS_01_0.VOB -
60 KB

          VIDEO_TS/VTS_01_1.VOB -
1023.97 MB

          VIDEO_TS/VTS_01_2.VOB -
1012.09 MB

     Blood [The Last Vampire].NFO -
5.79 KB

     Torrent downloaded from Demonoid.com.txt -
47 bytes



Description



===============================================================================================
[ Another free and high quality, ready to burn DVD - I will be adding new torrents on a daily basis - Remember to seed ]
===============================================================================================
MOVIE TITLE: Blood The Last Vampire
LANGUAGE: English
MOVIE SUBS: No - (subtitles if/when required)
BURN TESTED: Yes
FORMAT: Pal
GENRE: Action | Fantasy | Horror | Thriller
RUNTIME: 91 Minutes
YEAR: 2009
IMDB LINK: http://www.imdb.com/title/tt0806027/
===============================================================================================
GENERAL MOVIE DESC:

In 1970, the four hundred year-old skilled samurai Saya is sent to the Kanto High School in an American military base in Tokyo by the Council, a secret society that has been hunting vampires for centuries. Saya has the appearance of a teenager but is the tormented half-breed creature with the soul of her human father and the powers and need of blood of her vampire mother. She is obsessed to face the powerful demon Onigen that killed her father. In the base, Saya saves Alice McKee, who is the daughter of General McKee and commander of the base, from the attack of several vampires. When General McKee is killed by a member of the Council, Alice runs to the hotel where Saya is lodged. They join forces and go to the countryside to chase Onigen.
===============================================================================================
GENERAL MOVIE SPECS:

GENERAL:
Complete name : Blood [The Last Vampire]
Format : MPEG-PS
File size : 1.98 GB
Duration : 91 Minutes
Overall bit rate : 3 114 Kbps

VIDEO:
ID : 224 (0xE0)
Format : MPEG Video
Format version : Version 2
Format profile : [email protected]
Format settings, BVOP : Yes
Format settings, Matrix : Default
Duration : 91 Minutes
Bit rate mode : Variable
Bit rate : 2 924 Kbps
Nominal bit rate : 9 672 Kbps
Width : 704 pixels
Height : 576 pixels
Display aspect ratio : 16:9
Frame rate : 25.000 fps
Standard : PAL
Color space : YUV
Chroma subsampling : 4:2:0
Bit depth : 8 bits
Scan type : Progressive
Bits/(Pixel*Frame) : 0.288
Stream size : 962 MiB (94%)

AUDIO:
ID : 128 (0x80)
Format : AC-3
Format/Info : Audio Coding 3
Mode extension : CM (complete main)
Duration : 91 Minutes
Bit rate mode : Constant
Bit rate : 128 Kbps
Channel(s) : 2 channels
Channel positions : Front: L R
Sampling rate : 48.0 KHz
Stream size : 42.1 MiB (4%)
===============================================================================================

Related torrents

Torrent NameAddedSizeSeedLeechHealth
1 Year+ - in Movies4.35 GB8783
Verified torrent
1 Year+ - in Movies1.58 GB20
1 Year+ - in Movies1.31 GB16
1 Year+ - in Movies1.45 GB1470
4 months ago - in Other2.88 GB00

Comments (0 Comments)




Please login or create a FREE account to post comments

Latest Searches

| LegalPorno Chanel Lux 4on1 mini gangbang | FeatureFilms Anya Olsen | George Uhl Amirah Adara | emerson albums | Seikon no Qwaser I Complete Uncensored | Dawn Of The Planet Of The Apes 720p BRRip x264 AC3 EVo | Massive williams | UpHerAssHole Missy Martinez | emerson lake studio | derren brown mentalist |