Quick Browse
Movies
TV shows
Music
Games
Applications
Anime
Other
Facebook
Advertising

Friends
Torrent Download
Movie4u
1337x.to
Torrent Downloads




Blood Diamond [BDRip -Hindi]~3385VKSH


    Seeders : 4      Leechers : 0
Hash :925B57247834C99CB1FF3FDC33991299DE8D8420
Added :1 Year+ by VKS3385Verified torrent uploader in Movies
Size :733.81 MB
Stream :WATCH ONLINE @ Movie4u


Blood Diamond [BDRip -Hindi]~3385VKSH
Free and Fast Download with Usenet 300GB+ free







Trackers List

Tracker NameLast CheckStatusSeedersLeechers




Torrent File Content (2 files)


Blood.Diamond.BRRip.Hindi.VKS3385
     Blood Daimond 1.mkv -
444.81 MB

     Blood Diamond 2.mkv -
289.01 MB



Description



http://img340.imageshack.us/img340/1050/hddesirockers.png

http://img62.imageshack.us/img62/5382/roadsignphp.png

http://i50.tinypic.com/zvbzx2.jpg

http://www.celebrityscreenshots.com/celebStore/movies/blooddiamondfilm/poster/poster.jpg

http://img37.imageshack.us/img37/7218/vlcfile.png

Video
ID : 1
Format : AVC
Format/Info : Advanced Video Codec
Format profile : [email protected]
Format settings, CABAC : Yes
Format settings, ReFrames : 5 frames
Muxing mode : Container [email protected]
Codec ID : V_MPEG4/ISO/AVC
Duration : 1h 19mn
Bit rate : 637 Kbps
Nominal bit rate : 598 Kbps
Width : 1 280 pixels
Height : 528 pixels
Display aspect ratio : 2.40:1
Frame rate : 25.000 fps
Original frame rate : 23.976 fps
Color space : YUV
Chroma subsampling : 4:2:0
Bit depth : 8 bits
Scan type : Progressive
Bits/(Pixel*Frame) : 0.038
Stream size : 363 MiB (82%)
Writing library : x264 core 68 r1183M f21daff

http://img248.imageshack.us/img248/6613/musicfile1.png

Audio
ID : 2
Format : AC-3
Format/Info : Audio Coding 3
Mode extension : CM (complete main)
Codec ID : A_AC3
Duration : 1h 19mn
Bit rate mode : Constant
Bit rate : 128 Kbps
Channel(s) : 2 channels
Channel positions : Front: L R
Sampling rate : 48.0 KHz
Stream size : 72.9 MiB (16%)
Language : Hindi

http://img52.imageshack.us/img52/7996/ogtw21.gif

http://img204.imageshack.us/img204/193/blooddaimond1mkvthumbs2.jpg

http://img718.imageshack.us/img718/9468/blooddiamond2mkvthumbs2.jpg

http://img96.imageshack.us/img96/6946/blooddiamond1.png

http://img229.imageshack.us/img229/5483/blooddiamond2.png

http://img229.imageshack.us/img229/5149/blooddiamond3.png

http://img22.imageshack.us/img22/2742/blooddiamond10730909523.jpg

http://img38.imageshack.us/img38/6236/blooddiamond11638709502.jpg


http://img41.imageshack.us/img41/4206/slqp2p1.gif

http://img205.imageshack.us/img205/91/15880378.png

Related torrents

Torrent NameAddedSizeSeedLeechHealth
1 Comments
1 Year+ - in Movies1.88 GB00
Verified torrent
1 Year+ - in Movies2.08 GB00
Verified torrent
1 Year+ - in Movies1.91 GB00
1 Year+ - in Movies1.32 GB13
1 Year+ - in Movies1.32 GB11

Comments (0 Comments)




Please login or create a FREE account to post comments

Latest Searches

| HH Bangable Girl | Deepwater Horizon 2016 BLURAY | 1971 10bit | its all over three | Matewan 1987 | Sexy Lizz Tayler | 1970 10bit | leslie kay | IPTD 801 aaa aeaaa | anally stretched |