Quick Browse
Movies
TV shows
Music
Games
Applications
Anime
Other
Facebook
Advertising

Friends
Torrent Download
Movie4u
1337x.to
Torrent Downloads




Verified torrent Blood Done Sign My Name [DVD5] [ENG] [AC3] [Hannspree]


    Seeders : 2      Leechers : 8
Hash :7C2D2416493015F7442AF7C423A03330CA6974BE
Added :1 Year+ by HannspreeVerified torrent uploader in Movies
Size :2.14 GB
Stream :WATCH ONLINE @ Movie4u


Blood Done Sign My Name [DVD5] [ENG] [AC3] [Hannspree]
Free and Fast Download with Usenet 300GB+ free







Trackers List

Tracker NameLast CheckStatusSeedersLeechers




Torrent File Content (14 files)


Blood Done Sign My Name
    Blood Done Sign My Name [DVD]
          VIDEO_TS/VIDEO_TS.BUP -
12 KB

          VIDEO_TS/VIDEO_TS.IFO -
12 KB

          VIDEO_TS/VIDEO_TS.VOB -
58 KB

          VIDEO_TS/VTS_01_0.BUP -
88 KB

          VIDEO_TS/VTS_01_0.IFO -
88 KB

          VIDEO_TS/VTS_01_0.VOB -
58 KB

          VIDEO_TS/VTS_01_1.VOB -
1023.97 MB

          VIDEO_TS/VTS_01_2.VOB -
1023.97 MB

          VIDEO_TS/VTS_01_3.VOB -
138.99 MB

    Blood Done Sign My Name [Images]
          Blood Done Sign My Name [Cover].jpg -
818.36 KB

          Blood Done Sign My Name [Screens1].jpg -
137.61 KB

          Blood Done Sign My Name [Screens2].jpg -
154.28 KB

          Blood Done Sign My Name.jpg -
262.78 KB

     Blood Done Sign My Name.NFO -
3.87 KB



Description



=====================================================================================
[ Another free, high quality, ready to burn DVD I will be adding new torrents on a daily basis - Remember to seed ]
=====================================================================================
MOVIE TITLE: Blood Done Sign My Name
LANGUAGE: English
MOVIE SUBS: No
BURN TESTED: Yes
FORMAT: Pal
GENRE: Drama
RUNTIME: 128 Minutes
YEAR: 2010
IMDB LINK: http://www.imdb.com/title/tt1210039/
=====================================================================================
MOVIE DESC:

A drama based on the true story in which a black Vietnam-era veteran is allegedly murdered by a local white businessman who is later exonerated. The plot focuses on the role of a local high school teacher and the civil unrest that followed the acquittal.
=====================================================================================
MOVIE SPECS:

GENERAL:
Complete name : Blood Done Sign My Name [DVD5]
Format : MPEG-PS
File size : 2.13 GB
Duration : 128 Minutes
Overall bit rate : 2 541 Kbps

VIDEO:
ID : 224 (0xE0)
Format : MPEG Video
Format version : Version 2
Format profile : [email protected]
Format settings, BVOP : Yes
Format settings, Matrix : Default
Format settings, GOP : M=3, N=12
Duration : 128 Minutes
Bit rate mode : Variable
Bit rate : 2 299 Kbps
Nominal bit rate : 9 608 Kbps
Width : 720 pixels
Height : 576 pixels
Display aspect ratio : 16:9
Frame rate : 25.000 fps
Standard : PAL
Color space : YUV
Chroma subsampling : 4:2:0
Bit depth : 8 bits
Scan type : Progressive
Bits/(Pixel*Frame) : 0.222
Stream size : 926 MiB (90%)

AUDIO:
ID : 128 (0x80)
Format : AC-3
Format/Info : Audio Coding 3
Mode extension : CM (complete main)
Duration : 128 Minutes
Bit rate mode : Constant
Bit rate : 192 Kbps
Channel(s) : 2 channels
Channel positions : Front: L R
Sampling rate : 48.0 KHz
Video delay : -376ms
Stream size : 77.4 MiB (8%)
=====================================================================================
TRACKERS:
http://torrentbucket.org/announce
http://denis.stalker.h3q.com:6969/announce
http://nemesis.1337x.org/announce
http://exodus.1337x.org/announce
http://tracker.publicbt.com/announce
http://10.rarbg.com/announce
http://tracker.ilibr.org:6969/announce
http://rt.beeretracker.net/announce.php
http://red.tracker.prq.to/announce
http://tpb.tracker.prq.to/announce
=====================================================================================
[FOOT NOTE]
If you are happy with this download, it would be nice to hear your views or comments that you might have. Enjoy
=====================================================================================
Screen Shots Of Blood Done Sign My Name
=====================================================================================
http://leetpic.com/images/blooddones.jpg

=====================================================================================
http://leetpic.com/images/blooddsds.jpg

=====================================================================================

Related torrents

Torrent NameAddedSizeSeedLeechHealth
Verified torrent
1 Year+ - in Movies7.13 GB16156
6 months ago - in Movies1.55 GB00
6 months ago - in Movies1.62 GB00
6 months ago - in Other2.45 GB00
1 Year+ - in Movies7.13 GB1831

Comments (0 Comments)




Please login or create a FREE account to post comments

Latest Searches

| chefs table s01 720p | starbound 1 2 | Spectral 2016 HDRip | alone in the dark 2005 hindi | ample guitar e | maman ja rat lavion | BBC Planet Earth S 1 | Maria de Mar | dxo optics pro 7 crack | kahani 2 720p hd |