Quick Browse
Movies
TV shows
Music
Games
Applications
Anime
Other

Donate and Support

Friends
Torrents.me
Torrent Download
Free Movies
1337x
RARBG
Torrent Downloads

Verified torrent Blue Valentine 2010 DVDRip-MXMG


    Seeders : 317      Leechers : 330
Hash :B9C9040F945D612D794C99B2400758BAF86AC217
Added :1 Year+ by MXMGVerified torrent uploader in Movies
Size :701.48 MB
Stream :Watch Full Movies Online @ Movie4u
Share :


Blue Valentine 2010 DVDRip-MXMG
Anonymous and Direct Download 300GB+ free







Warning! Do not Download Torrents Without a VPN!
Your IP Address is .   And Location is
Your Internet Provider and Government can track your torrent Activity!  Hide your IP ADDRESS with a VPN!
We Strongly Recommend Using SpyOFF Torrent VPN to Anonymize your Torrenting. It's FREE For 15 Days!

Note :

Please Update (Trackers Info) Before Downloading Torrents to See Updated Seeders And Leechers for Batter Download Speed.

Trackers List

Tracker NameLast CheckStatusSeedersLeechers




Torrent File Content (5 files)


Blue Valentine 2010 DVDRip-MXMG
     Blue Valentine.avi -
701.38 MB

     Blue Valentine[subs]English.srt -
105.66 KB

     MXMG.nfo -
2 KB

     Torrent downloaded from Demonoid.me.txt -
46 bytes

     Torrent downloaded from Silvertorrents.me.txt -
41 bytes



Description



http://img831.imageshack.us/img831/2931/blankn.png





http://img816.imageshack.us/img816/4286/mxmg.jpg


[quote]
Format : AVI
Format/Info : Audio Video Interleave
File size : 701 MiB
Duration : 1h 52mn
Overall bit rate : 875 Kbps
Writing application : VirtualDubMod 1.5.10.3 | www.virtualdub-fr.org || (build 2550/release)
Writing library : VirtualDubMod build 2550/release

Video
ID : 0
Format : MPEG-4 Visual
Format profile : Advanced [email protected]
Format settings, BVOP : 1
Format settings, QPel : No
Format settings, GMC : No warppoints
Format settings, Matrix : Default (H.263)
Codec ID : XVID
Codec ID/Hint : XviD
Duration : 1h 52mn
Bit rate : 738 Kbps
Width : 640 pixels
Height : 384 pixels
Display aspect ratio : 1.667
Frame rate : 23.976 fps
Color space : YUV
Chroma subsampling : 4:2:0
Bit depth : 8 bits
Scan type : Progressive
Compression mode : Lossy
Bits/(Pixel*Frame) : 0.125
Stream size : 591 MiB (84%)
Writing library : XviD 63

Audio
ID : 1
Format : MPEG Audio
Format version : Version 1
Format profile : Layer 3
Codec ID : 55
Codec ID/Hint : MP3
Duration : 1h 52mn
Bit rate mode : Constant
Bit rate : 128 Kbps
Channel(s) : 2 channels
Sampling rate : 48.0 KHz
Compression mode : Lossy
Stream size : 103 MiB (15%)
Alignment : Aligned on interleaves
Interleave, duration : 42 ms (1.00 video frame)
Interleave, preload duration : 504 ms
Writing library : LAME3.98r
Encoding settings : -m s -V 4 -q 2 -lowpass 17 -b 128
[/quote]
Screens :
http://img819.imageshack.us/img819/6643/screenshot2011042122h15.png


http://img850.imageshack.us/img850/9347/screenshot2011042122h14.png


http://img843.imageshack.us/img843/9347/screenshot2011042122h14.png


http://img576.imageshack.us/img576/6643/screenshot2011042122h15.png


http://img576.imageshack.us/img576/2091/screenshot2011042122h15b.png




[quote]
# Latest codecs used to deliver Top Quality Releases
# Seeded at high speeds to grant super Download speeds
# All DivX/XviD Players compatible and also PS3, Popcorn Hour, WD & XBOX 360*
[/quote]

[code]
Seedboxes provided by http://www.chociz.com/
A seedbox is a private dedicated server used for the uploading and downloading of digital files.
Speed - You can sit back, relax and watch in amazement at how fast the torrents finish.
Secure and Safe - With a seedbox, you don’t even need to use a BitTorrent client on your home computer!
Use Private Trackers - You can register @ Private Trackers and seed like Hell!

Get a Cheap Seedbox choosing for your taste - [url]http://www.chociz.com/whmcs/cart.php[/url]
[/code]


Related torrents

Torrent NameAddedSizeSeedLeechHealth
1 Year+ - in Other1.84 GB132
1 Year+ - in Movies12.51 GB00
1 Year+ - in Movies2.14 GB00
1 Year+ - in Movies1.42 GB00
1 Year+ - in Other1.36 GB00

Comments (1 comment)




Reddy
» Downloaded this torrent Downloaded this torrent » Voted Good Voted Good for this torrent for this torrent

Added 1 Year+
tq
Please login or create a FREE account to post comments

Latest Searches

| NCIS New Orleans s03e22 | Live In Super Overdrive | Games Java Sony Ericsson | johns hopkins medicine patients guide | Death Warmed Up 1984 | danny zoo | Columbus Circle 2012 1080p | RoboForm2Go 7 7 0 | ancient x files s02e04 | Young and Corrupt Edition Brazzers New 2016 |