Quick Browse
Movies
TV shows
Music
Games
Applications
Anime
Other
Facebook
Advertising

Friends
Torrent Download
Movie4u
1337x.to
Torrent Downloads




Verified torrent Born To Raise Hell 2010 iTALiAN DVDRip XviD-AriA-[IDN_CREW]


    Seeders : 2      Leechers : 3
Hash :D80B82A2292F717F99B35CFFB376D53C1D058CBA
Added :1 Year+ by manny02Verified torrent uploader in Movies
Size :699.78 MB
Stream :WATCH ONLINE @ Movie4u


Born To Raise Hell 2010 iTALiAN DVDRip XviD-AriA-[IDN_CREW]
Free and Fast Download with Usenet 300GB+ free







Trackers List

Tracker NameLast CheckStatusSeedersLeechers




Torrent File Content (2 files)


Born.To.Raise.Hell.2010.iTALiAN.DVDRip.XviD-AriA-[IDN_CREW]
     Born.To.Raise.Hell.2010.iTALiAN.DVDRip.XviD-AriA-[IDN_CREW].avi -
699.78 MB

     IDN_CREW Leggimi.txt -
294 bytes



Description



http://img696.imageshack.us/img696/6051/borntoraisehell.png


http://img514.imageshack.us/img514/1502/inforelease.png


[color=red]Titolo:[/color] Born to Raise Hell
[color=red]Anno: [/color]2010
[color=red]Nazionalità: [/color]USA
[color=red]Genere:[/color] Azione
[color=red]Lingua:[/color] Italiano
[color=red]Durata Episodio:[/color] 96 min.
[color=red]Cast:[/color] Steven Seagal, Dan Badarau, Darren Shahlavi, D. Neil Mark, George Remes
[color=red]Ideatore:[/color] Lauro Chartrand
[color=red]Produzione:[/color] Paramount Pictures


http://img153.imageshack.us/img153/7608/tramao.png



[color=black]Steven Seagal è un agente dell'Interpool spedito nell'Europa dell'est per indagare su un traffico di armi e droga. Mentre sta investigando su un commerciante d'armi russo, il suo team si trova nel mezzo di una sanguinosa guerra di strada tra una gang di zingari e i russi, lasciando un membro della sua unità morto.[/color]

http://img190.imageshack.us/img190/7663/recension.png



[color=black] Steven Seagal fornisce l'ennesima, magistralmente impassibile (immota) interpretazione e mette anche mano alla sceneggiatura di questo film tecnicamente a tratti imbarazzante, infarcito della solita dose massiccia di becera azione, un tanto al chilo.
[/color]


http://img529.imageshack.us/img529/7286/datifile.png



http://img812.imageshack.us/img812/5784/borntoraisehellunicodov.jpg


Ringraziamenti all’autore del file: Aria

http://torrent-stats.info/5cff/7e8de09f.png


[color=red] General
Complete name : Born.To.Raise.Hell.2010.iTALiAN.DVDRip.XviD-AriA-[IDN_CREW].avi
Format : AVI
Format/Info : Audio Video Interleave
File size : 700 MiB
Duration : 1h 32mn
Overall bit rate : 1 063 Kbps
Writing application : Nandub v1.0rc2
Writing library : Nandub build 1852/release

Video
Format : MPEG-4 Visual
Format profile : Streaming [email protected]
Format settings, BVOP : Yes
Format settings, QPel : No
Format settings, GMC : No warppoints
Format settings, Matrix : Default
Muxing mode : Packed bitstream
Codec ID : XVID
Codec ID/Hint : XviD
Duration : 1h 32mn
Bit rate : 922 Kbps
Width : 720 pixels
Height : 384 pixels
Display aspect ratio : 1.875
Frame rate : 25.000 fps
Resolution : 24 bits
Colorimetry : 4:2:0
Scan type : Progressive
Bits/(Pixel*Frame) : 0.133
Stream size : 607 MiB (87%)
Writing library : XviD 1.1.0 (UTC 2005-11-22)

Audio
Format : MPEG Audio
Format version : Version 1
Format profile : Layer 3
Codec ID : 55
Codec ID/Hint : MP3
Duration : 1h 32mn
Bit rate mode : Constant
Bit rate : 128 Kbps
Channel(s) : 2 channels
Sampling rate : 48.0 KHz
Resolution : 16 bits
Stream size : 84.3 MiB (12%)
Alignment : Aligned on interleaves
Interleave, duration : 24 ms (0.60 video frame)
Interleave, preload duration : 480 ms

[/color]


http://img824.imageshack.us/img824/1802/idncrewcertificato.png


http://img20.imageshack.us/img20/4974/screenshotsph.png



http://img842.imageshack.us/img842/7313/vlcsnap2011052307h26m13.png


http://img4.imageshack.us/img4/9664/vlcsnap2011052307h26m19.png


http://img535.imageshack.us/img535/1212/vlcsnap2011052307h26m39.png


http://img577.imageshack.us/img577/139/vlcsnap2011052307h26m46.png


http://img717.imageshack.us/img717/3683/vlcsnap2011052307h27m06.png


http://img687.imageshack.us/img687/5791/nuuuuuuuuuuu.png


Related torrents

Torrent NameAddedSizeSeedLeechHealth
10 months ago - in Movies1.21 GB00
1 Year+ - in Other6.56 GB00
1 Year+ - in Movies692.51 MB05
1 Year+ - in Movies1.37 GB00
1 Year+ - in Movies4.45 GB112

Comments (0 Comments)




Please login or create a FREE account to post comments

Latest Searches

| alone in the dark hindi | more that then | tenchi 2009 | starbound 1 1 2 | chefs table s01 720p | starbound 1 2 | Spectral 2016 HDRip | alone in the dark 2005 hindi | ample guitar e | maman ja rat lavion |